  0
SECTION
  2
HEADER
  9
$ACADVER
  1
AC1032
  9
$ACADMAINTVER
 90
      228
  9
$DWGCODEPAGE
  3
ANSI_932
  9
$LASTSAVEDBY
  1
FTM530544
  9
$REQUIREDVERSIONS
160
                 0
  9
$INSBASE
 10
0.0
 20
0.0
 30
0.0
  9
$EXTMIN
 10
440.4470759211194
 20
215.6062885900728
 30
-0.0015258207003583
  9
$EXTMAX
 10
650.4815577194815
 20
512.6584508159553
 30
0.0000000349246037
  9
$LIMMIN
 10
0.0
 20
0.0
  9
$LIMMAX
 10
420.0
 20
297.0
  9
$ORTHOMODE
 70
     0
  9
$REGENMODE
 70
     1
  9
$FILLMODE
 70
     1
  9
$QTEXTMODE
 70
     0
  9
$MIRRTEXT
 70
     0
  9
$LTSCALE
 40
1.0
  9
$ATTMODE
 70
     1
  9
$TEXTSIZE
 40
2.5
  9
$TRACEWID
 40
1.0
  9
$TEXTSTYLE
  7
Standard
  9
$CLAYER
  8
0
  9
$CELTYPE
  6
ByLayer
  9
$CECOLOR
 62
   256
  9
$CELTSCALE
 40
1.0
  9
$DISPSILH
 70
     0
  9
$DIMSCALE
 40
1.0
  9
$DIMASZ
 40
2.5
  9
$DIMEXO
 40
0.625
  9
$DIMDLI
 40
3.75
  9
$DIMRND
 40
0.0
  9
$DIMDLE
 40
0.0
  9
$DIMEXE
 40
1.25
  9
$DIMTP
 40
0.0
  9
$DIMTM
 40
0.0
  9
$DIMTXT
 40
2.5
  9
$DIMCEN
 40
2.5
  9
$DIMTSZ
 40
0.0
  9
$DIMTOL
 70
     0
  9
$DIMLIM
 70
     0
  9
$DIMTIH
 70
     0
  9
$DIMTOH
 70
     0
  9
$DIMSE1
 70
     0
  9
$DIMSE2
 70
     0
  9
$DIMTAD
 70
     1
  9
$DIMZIN
 70
     8
  9
$DIMBLK
  1

  9
$DIMASO
 70
     1
  9
$DIMSHO
 70
     1
  9
$DIMPOST
  1

  9
$DIMAPOST
  1

  9
$DIMALT
 70
     0
  9
$DIMALTD
 70
     3
  9
$DIMALTF
 40
0.03937007874016
  9
$DIMLFAC
 40
1.0
  9
$DIMTOFL
 70
     1
  9
$DIMTVP
 40
0.0
  9
$DIMTIX
 70
     0
  9
$DIMSOXD
 70
     0
  9
$DIMSAH
 70
     0
  9
$DIMBLK1
  1

  9
$DIMBLK2
  1

  9
$DIMSTYLE
  2
ISO-25
  9
$DIMCLRD
 70
     0
  9
$DIMCLRE
 70
     0
  9
$DIMCLRT
 70
     0
  9
$DIMTFAC
 40
1.0
  9
$DIMGAP
 40
0.625
  9
$DIMJUST
 70
     0
  9
$DIMSD1
 70
     0
  9
$DIMSD2
 70
     0
  9
$DIMTOLJ
 70
     0
  9
$DIMTZIN
 70
     8
  9
$DIMALTZ
 70
     0
  9
$DIMALTTZ
 70
     0
  9
$DIMUPT
 70
     0
  9
$DIMDEC
 70
     2
  9
$DIMTDEC
 70
     2
  9
$DIMALTU
 70
     2
  9
$DIMALTTD
 70
     3
  9
$DIMTXSTY
  7
Standard
  9
$DIMAUNIT
 70
     0
  9
$DIMADEC
 70
     0
  9
$DIMALTRND
 40
0.0
  9
$DIMAZIN
 70
     0
  9
$DIMDSEP
 70
    44
  9
$DIMATFIT
 70
     3
  9
$DIMFRAC
 70
     0
  9
$DIMLDRBLK
  1

  9
$DIMLUNIT
 70
     2
  9
$DIMLWD
 70
    -2
  9
$DIMLWE
 70
    -2
  9
$DIMTMOVE
 70
     0
  9
$DIMFXL
 40
1.0
  9
$DIMFXLON
 70
     0
  9
$DIMJOGANG
 40
0.7853981633974483
  9
$DIMTFILL
 70
     0
  9
$DIMTFILLCLR
 70
     0
  9
$DIMARCSYM
 70
     0
  9
$DIMLTYPE
  6

  9
$DIMLTEX1
  6

  9
$DIMLTEX2
  6

  9
$DIMTXTDIRECTION
 70
     0
  9
$LUNITS
 70
     2
  9
$LUPREC
 70
     4
  9
$SKETCHINC
 40
1.0
  9
$FILLETRAD
 40
0.0
  9
$AUNITS
 70
     0
  9
$AUPREC
 70
     0
  9
$MENU
  1
.
  9
$ELEVATION
 40
0.0
  9
$PELEVATION
 40
0.0
  9
$THICKNESS
 40
0.0
  9
$LIMCHECK
 70
     0
  9
$CHAMFERA
 40
0.0
  9
$CHAMFERB
 40
0.0
  9
$CHAMFERC
 40
0.0
  9
$CHAMFERD
 40
0.0
  9
$SKPOLY
 70
     0
  9
$TDCREATE
 40
2459280.970625000
  9
$TDUCREATE
 40
2459280.595625000
  9
$TDUPDATE
 40
2460186.358495370
  9
$TDUUPDATE
 40
2460185.983495370
  9
$TDINDWG
 40
0.0521412037
  9
$TDUSRTIMER
 40
0.0521412037
  9
$USRTIMER
 70
     1
  9
$ANGBASE
 50
0.0
  9
$ANGDIR
 70
     0
  9
$PDMODE
 70
     0
  9
$PDSIZE
 40
0.0
  9
$PLINEWID
 40
0.0
  9
$SPLFRAME
 70
     0
  9
$SPLINETYPE
 70
     6
  9
$SPLINESEGS
 70
     8
  9
$HANDSEED
  5
88C
  9
$SURFTAB1
 70
     6
  9
$SURFTAB2
 70
     6
  9
$SURFTYPE
 70
     6
  9
$SURFU
 70
     6
  9
$SURFV
 70
     6
  9
$UCSBASE
  2

  9
$UCSNAME
  2

  9
$UCSORG
 10
0.0
 20
0.0
 30
0.0
  9
$UCSXDIR
 10
1.0
 20
0.0
 30
0.0
  9
$UCSYDIR
 10
0.0
 20
1.0
 30
0.0
  9
$UCSORTHOREF
  2

  9
$UCSORTHOVIEW
 70
     0
  9
$UCSORGTOP
 10
0.0
 20
0.0
 30
0.0
  9
$UCSORGBOTTOM
 10
0.0
 20
0.0
 30
0.0
  9
$UCSORGLEFT
 10
0.0
 20
0.0
 30
0.0
  9
$UCSORGRIGHT
 10
0.0
 20
0.0
 30
0.0
  9
$UCSORGFRONT
 10
0.0
 20
0.0
 30
0.0
  9
$UCSORGBACK
 10
0.0
 20
0.0
 30
0.0
  9
$PUCSBASE
  2

  9
$PUCSNAME
  2

  9
$PUCSORG
 10
0.0
 20
0.0
 30
0.0
  9
$PUCSXDIR
 10
1.0
 20
0.0
 30
0.0
  9
$PUCSYDIR
 10
0.0
 20
1.0
 30
0.0
  9
$PUCSORTHOREF
  2

  9
$PUCSORTHOVIEW
 70
     0
  9
$PUCSORGTOP
 10
0.0
 20
0.0
 30
0.0
  9
$PUCSORGBOTTOM
 10
0.0
 20
0.0
 30
0.0
  9
$PUCSORGLEFT
 10
0.0
 20
0.0
 30
0.0
  9
$PUCSORGRIGHT
 10
0.0
 20
0.0
 30
0.0
  9
$PUCSORGFRONT
 10
0.0
 20
0.0
 30
0.0
  9
$PUCSORGBACK
 10
0.0
 20
0.0
 30
0.0
  9
$USERI1
 70
     0
  9
$USERI2
 70
     0
  9
$USERI3
 70
     0
  9
$USERI4
 70
     0
  9
$USERI5
 70
     0
  9
$USERR1
 40
0.0
  9
$USERR2
 40
0.0
  9
$USERR3
 40
0.0
  9
$USERR4
 40
0.0
  9
$USERR5
 40
0.0
  9
$WORLDVIEW
 70
     1
  9
$SHADEDGE
 70
     3
  9
$SHADEDIF
 70
    70
  9
$TILEMODE
 70
     1
  9
$MAXACTVP
 70
    64
  9
$PINSBASE
 10
0.0
 20
0.0
 30
0.0
  9
$PLIMCHECK
 70
     0
  9
$PEXTMIN
 10
0.0
 20
0.0
 30
0.0
  9
$PEXTMAX
 10
0.0
 20
0.0
 30
0.0
  9
$PLIMMIN
 10
0.0
 20
0.0
  9
$PLIMMAX
 10
12.0
 20
9.0
  9
$UNITMODE
 70
     0
  9
$VISRETAIN
 70
     1
  9
$PLINEGEN
 70
     0
  9
$PSLTSCALE
 70
     1
  9
$TREEDEPTH
 70
  3020
  9
$CMLSTYLE
  2
Standard
  9
$CMLJUST
 70
     0
  9
$CMLSCALE
 40
20.0
  9
$PROXYGRAPHICS
 70
     1
  9
$MEASUREMENT
 70
     1
  9
$CELWEIGHT
370
    -1
  9
$ENDCAPS
280
     0
  9
$JOINSTYLE
280
     0
  9
$LWDISPLAY
290
     0
  9
$INSUNITS
 70
     4
  9
$HYPERLINKBASE
  1

  9
$STYLESHEET
  1

  9
$XEDIT
290
     1
  9
$CEPSNTYPE
380
     0
  9
$PSTYLEMODE
290
     1
  9
$FINGERPRINTGUID
  2
{30AA79E7-3752-4A49-A7DF-08DADA7AF961}
  9
$VERSIONGUID
  2
{388F4E58-57D7-584A-B4BD-F833AF81AF0A}
  9
$EXTNAMES
290
     1
  9
$PSVPSCALE
 40
0.0
  9
$OLESTARTUP
290
     0
  9
$SORTENTS
280
   127
  9
$INDEXCTL
280
     0
  9
$HIDETEXT
280
     1
  9
$XCLIPFRAME
280
     2
  9
$HALOGAP
280
     0
  9
$OBSCOLOR
 70
   257
  9
$OBSLTYPE
280
     0
  9
$INTERSECTIONDISPLAY
280
     0
  9
$INTERSECTIONCOLOR
 70
   257
  9
$DIMASSOC
280
     2
  9
$PROJECTNAME
  1

  9
$CAMERADISPLAY
290
     0
  9
$LENSLENGTH
 40
50.0
  9
$CAMERAHEIGHT
 40
0.0
  9
$STEPSPERSEC
 40
2.0
  9
$STEPSIZE
 40
6.0
  9
$3DDWFPREC
 40
2.0
  9
$PSOLWIDTH
 40
5.0
  9
$PSOLHEIGHT
 40
80.0
  9
$LOFTANG1
 40
1.570796326794896
  9
$LOFTANG2
 40
1.570796326794896
  9
$LOFTMAG1
 40
0.0
  9
$LOFTMAG2
 40
0.0
  9
$LOFTPARAM
 70
     7
  9
$LOFTNORMALS
280
     1
  9
$LATITUDE
 40
37.795
  9
$LONGITUDE
 40
-122.394
  9
$NORTHDIRECTION
 40
0.0
  9
$TIMEZONE
 70
 -8000
  9
$LIGHTGLYPHDISPLAY
280
     1
  9
$TILEMODELIGHTSYNCH
280
     1
  9
$CMATERIAL
347
EC
  9
$SOLIDHIST
280
     0
  9
$SHOWHIST
280
     1
  9
$DWFFRAME
280
     2
  9
$DGNFRAME
280
     0
  9
$REALWORLDSCALE
290
     1
  9
$INTERFERECOLOR
 62
     1
  9
$INTERFEREOBJVS
345
F9
  9
$INTERFEREVPVS
346
F6
  9
$CSHADOW
280
     0
  9
$SHADOWPLANELOCATION
 40
0.0
  0
ENDSEC
  0
SECTION
  2
CLASSES
  0
CLASS
  1
ACDBDICTIONARYWDFLT
  2
AcDbDictionaryWithDefault
  3
ObjectDBX Classes
 90
        0
 91
        1
280
     0
281
     0
  0
CLASS
  1
DICTIONARYVAR
  2
AcDbDictionaryVar
  3
ObjectDBX Classes
 90
        0
 91
       15
280
     0
281
     0
  0
CLASS
  1
TABLESTYLE
  2
AcDbTableStyle
  3
ObjectDBX Classes
 90
     4095
 91
        1
280
     0
281
     0
  0
CLASS
  1
MATERIAL
  2
AcDbMaterial
  3
ObjectDBX Classes
 90
     1153
 91
        3
280
     0
281
     0
  0
CLASS
  1
VISUALSTYLE
  2
AcDbVisualStyle
  3
ObjectDBX Classes
 90
     4095
 91
       24
280
     0
281
     0
  0
CLASS
  1
SCALE
  2
AcDbScale
  3
ObjectDBX Classes
 90
     1153
 91
       17
280
     0
281
     0
  0
CLASS
  1
MLEADERSTYLE
  2
AcDbMLeaderStyle
  3
ACDB_MLEADERSTYLE_CLASS
 90
     4095
 91
        2
280
     0
281
     0
  0
CLASS
  1
CELLSTYLEMAP
  2
AcDbCellStyleMap
  3
ObjectDBX Classes
 90
     1152
 91
        3
280
     0
281
     0
  0
CLASS
  1
EXACXREFPANELOBJECT
  2
ExAcXREFPanelObject
  3
EXAC_ESW
 90
     1025
 91
        0
280
     0
281
     0
  0
CLASS
  1
NPOCOLLECTION
  2
AcDbImpNonPersistentObjectsCollection
  3
ObjectDBX Classes
 90
     1153
 91
        0
280
     0
281
     0
  0
CLASS
  1
LAYER_INDEX
  2
AcDbLayerIndex
  3
ObjectDBX Classes
 90
        0
 91
        0
280
     0
281
     0
  0
CLASS
  1
SPATIAL_INDEX
  2
AcDbSpatialIndex
  3
ObjectDBX Classes
 90
        0
 91
        0
280
     0
281
     0
  0
CLASS
  1
IDBUFFER
  2
AcDbIdBuffer
  3
ObjectDBX Classes
 90
        0
 91
        0
280
     0
281
     0
  0
CLASS
  1
ACDBSECTIONVIEWSTYLE
  2
AcDbSectionViewStyle
  3
ObjectDBX Classes
 90
     1025
 91
        2
280
     0
281
     0
  0
CLASS
  1
ACDBDETAILVIEWSTYLE
  2
AcDbDetailViewStyle
  3
ObjectDBX Classes
 90
     1025
 91
        2
280
     0
281
     0
  0
CLASS
  1
MULTILEADER
  2
AcDbMLeader
  3
ACDB_MLEADER_CLASS
 90
     1025
 91
        8
280
     0
281
     1
  0
CLASS
  1
SORTENTSTABLE
  2
AcDbSortentsTable
  3
ObjectDBX Classes
 90
        0
 91
        0
280
     0
281
     0
  0
CLASS
  1
PLOTSETTINGS
  2
AcDbPlotSettings
  3
ObjectDBX Classes
 90
        0
 91
        1
280
     0
281
     0
  0
ENDSEC
  0
SECTION
  2
TABLES
  0
TABLE
  2
VPORT
  5
8
330
0
100
AcDbSymbolTable
 70
     1
  0
VPORT
  5
EA
330
8
100
AcDbSymbolTableRecord
100
AcDbViewportTableRecord
  2
*Active
 70
     0
 10
0.0
 20
0.0
 11
1.0
 21
1.0
 12
545.4643168203005
 22
364.1323697030141
 13
0.0
 23
0.0
 14
10.0
 24
10.0
 15
10.0
 25
10.0
 16
0.0
 26
0.0
 36
1.0
 17
0.0
 27
0.0
 37
0.0
 40
299.1689234768983
 41
2.05231866825208
 42
50.0
 43
0.0
 44
0.0
 50
0.0
 51
0.0
 71
     0
 72
  1000
 73
     1
 74
     3
 75
     0
 76
     1
 77
     0
 78
     0
281
     0
 65
     1
110
0.0
120
0.0
130
0.0
111
1.0
121
0.0
131
0.0
112
0.0
122
1.0
132
0.0
 79
     0
146
0.0
348
F5
 60
     3
 61
     5
292
     1
282
     1
141
0.0
142
0.0
 63
   250
421
  3355443
1001
ACAD_NAV_VCDISPLAY
1070
     3
  0
ENDTAB
  0
TABLE
  2
LTYPE
  5
5
330
0
100
AcDbSymbolTable
 70
     3
  0
LTYPE
  5
14
330
5
100
AcDbSymbolTableRecord
100
AcDbLinetypeTableRecord
  2
ByBlock
 70
     0
  3

 72
    65
 73
     0
 40
0.0
  0
LTYPE
  5
15
330
5
100
AcDbSymbolTableRecord
100
AcDbLinetypeTableRecord
  2
ByLayer
 70
     0
  3

 72
    65
 73
     0
 40
0.0
  0
LTYPE
  5
16
330
5
100
AcDbSymbolTableRecord
100
AcDbLinetypeTableRecord
  2
Continuous
 70
     0
  3
Solid line
 72
    65
 73
     0
 40
0.0
  0
LTYPE
  5
2A6
330
5
100
AcDbSymbolTableRecord
100
AcDbLinetypeTableRecord
  2
HIDDEN
 70
     0
  3
HIDDEN
 72
    65
 73
     2
 40
0.375
 49
0.25
 74
     0
 49
-0.125
 74
     0
  0
ENDTAB
  0
TABLE
  2
LAYER
  5
2
102
{ACAD_XDICTIONARY
360
1FF
102
}
330
0
100
AcDbSymbolTable
 70
     7
  0
LAYER
  5
10
102
{ACAD_XDICTIONARY
360
13C
102
}
330
2
100
AcDbSymbolTableRecord
100
AcDbLayerTableRecord
  2
0
 70
     0
 62
     7
  6
Continuous
370
    -3
390
F
347
EE
348
0
  0
LAYER
  5
2A7
102
{ACAD_XDICTIONARY
360
2A8
102
}
330
2
100
AcDbSymbolTableRecord
100
AcDbLayerTableRecord
  2
図面枠
 70
     0
 62
     7
  6
Continuous
370
    -3
390
F
347
EE
348
0
  0
LAYER
  5
2A9
330
2
100
AcDbSymbolTableRecord
100
AcDbLayerTableRecord
  2
躯体・通線物他
 70
     0
 62
     7
  6
Continuous
370
    -3
390
F
347
EE
348
0
1001
AcAecLayerStandard
1000

1000

1001
AcCmTransparency
1071
        0
  0
LAYER
  5
2AA
330
2
100
AcDbSymbolTableRecord
100
AcDbLayerTableRecord
  2
防火材
 70
     0
 62
     7
  6
Continuous
370
    -3
390
F
347
EE
348
0
1001
AcAecLayerStandard
1000

1000

1001
AcCmTransparency
1071
        0
  0
LAYER
  5
2AB
330
2
100
AcDbSymbolTableRecord
100
AcDbLayerTableRecord
  2
文字
 70
     0
 62
     7
  6
Continuous
370
    -3
390
F
347
EE
348
0
1001
AcAecLayerStandard
1000

1000

1001
AcCmTransparency
1071
        0
  0
LAYER
  5
2AC
330
2
100
AcDbSymbolTableRecord
100
AcDbLayerTableRecord
  2
寸法
 70
     0
 62
     7
  6
Continuous
370
    -3
390
F
347
EE
348
0
1001
AcAecLayerStandard
1000

1000

1001
AcCmTransparency
1071
        0
  0
LAYER
  5
2AD
330
2
100
AcDbSymbolTableRecord
100
AcDbLayerTableRecord
  2
Defpoints
 70
     0
 62
     7
  6
Continuous
290
     0
370
    -3
390
F
347
EE
348
0
  0
ENDTAB
  0
TABLE
  2
STYLE
  5
3
330
0
100
AcDbSymbolTable
 70
     6
  0
STYLE
  5
11
330
3
100
AcDbSymbolTableRecord
100
AcDbTextStyleTableRecord
  2
Standard
 70
     0
 40
0.0
 41
1.0
 50
0.0
 71
     0
 42
2.5
  3
arial.ttf
  4

1001
ACAD
1000
Arial
1071
       34
  0
STYLE
  5
132
330
3
100
AcDbSymbolTableRecord
100
AcDbTextStyleTableRecord
  2
Annotative
 70
     0
 40
0.0
 41
1.0
 50
0.0
 71
     0
 42
2.5
  3
arial.ttf
  4

1001
AcadAnnotative
1000
AnnotativeData
1002
{
1070
     1
1070
     1
1002
}
1001
ACAD
1000
Arial
1071
       34
  0
ENDTAB
  0
TABLE
  2
VIEW
  5
6
330
0
100
AcDbSymbolTable
 70
     2
  0
ENDTAB
  0
TABLE
  2
UCS
  5
7
330
0
100
AcDbSymbolTable
 70
     0
  0
ENDTAB
  0
TABLE
  2
APPID
  5
9
330
0
100
AcDbSymbolTable
 70
    14
  0
APPID
  5
12
330
9
100
AcDbSymbolTableRecord
100
AcDbRegAppTableRecord
  2
ACAD
 70
     0
  0
APPID
  5
9E
330
9
100
AcDbSymbolTableRecord
100
AcDbRegAppTableRecord
  2
ACAD_PSEXT
 70
     0
  0
APPID
  5
133
330
9
100
AcDbSymbolTableRecord
100
AcDbRegAppTableRecord
  2
AcadAnnoPO
 70
     0
  0
APPID
  5
134
330
9
100
AcDbSymbolTableRecord
100
AcDbRegAppTableRecord
  2
AcadAnnotative
 70
     0
  0
APPID
  5
135
330
9
100
AcDbSymbolTableRecord
100
AcDbRegAppTableRecord
  2
ACAD_DSTYLE_DIMJAG
 70
     0
  0
APPID
  5
136
330
9
100
AcDbSymbolTableRecord
100
AcDbRegAppTableRecord
  2
ACAD_DSTYLE_DIMTALN
 70
     0
  0
APPID
  5
165
330
9
100
AcDbSymbolTableRecord
100
AcDbRegAppTableRecord
  2
ACAD_MLEADERVER
 70
     0
  0
APPID
  5
217
330
9
100
AcDbSymbolTableRecord
100
AcDbRegAppTableRecord
  2
ACAD_NAV_VCDISPLAY
 70
     0
  0
APPID
  5
2AE
330
9
100
AcDbSymbolTableRecord
100
AcDbRegAppTableRecord
  2
AcAecLayerStandard
 70
     0
  0
APPID
  5
2AF
330
9
100
AcDbSymbolTableRecord
100
AcDbRegAppTableRecord
  2
AcCmTransparency
 70
     0
  0
APPID
  5
2B0
330
9
100
AcDbSymbolTableRecord
100
AcDbRegAppTableRecord
  2
GradientColor1ACI
 70
     0
  0
APPID
  5
2B1
330
9
100
AcDbSymbolTableRecord
100
AcDbRegAppTableRecord
  2
GradientColor2ACI
 70
     0
  0
APPID
  5
722
330
9
100
AcDbSymbolTableRecord
100
AcDbRegAppTableRecord
  2
AcadAnnoMonitorAlertIconDisabled
 70
     0
  0
APPID
  5
723
330
9
100
AcDbSymbolTableRecord
100
AcDbRegAppTableRecord
  2
ACAD_EXEMPT_FROM_CAD_STANDARDS
 70
     0
  0
ENDTAB
  0
TABLE
  2
DIMSTYLE
  5
A
330
0
100
AcDbSymbolTable
 70
     7
100
AcDbDimStyleTable
 71
     2
340
27
340
137
  0
DIMSTYLE
105
1B0
102
{ACAD_REACTORS
330
529
330
4DB
102
}
330
A
100
AcDbSymbolTableRecord
100
AcDbDimStyleTableRecord
  2
Standard
 70
     0
340
11
  0
DIMSTYLE
105
137
330
A
100
AcDbSymbolTableRecord
100
AcDbDimStyleTableRecord
  2
Annotative
 70
     0
 40
0.0
 41
2.5
 42
0.625
 43
3.75
 44
1.25
 73
     0
 74
     0
 77
     1
 78
     8
140
2.5
141
2.5
143
0.03937007874016
147
0.625
171
     3
172
     1
271
     2
272
     2
274
     3
278
    44
283
     0
284
     8
340
11
1001
AcadAnnotative
1000
AnnotativeData
1002
{
1070
     1
1070
     1
1002
}
1001
ACAD_DSTYLE_DIMJAG
1070
   388
1040
1.5
1001
ACAD_DSTYLE_DIMTALN
1070
   392
1070
     0
  0
DIMSTYLE
105
27
330
A
100
AcDbSymbolTableRecord
100
AcDbDimStyleTableRecord
  2
ISO-25
 70
     0
 41
2.5
 42
0.625
 43
3.75
 44
1.25
 73
     0
 74
     0
 77
     1
 78
     8
140
2.5
141
2.5
143
0.03937007874016
147
0.625
171
     3
172
     1
271
     2
272
     2
274
     3
278
    44
283
     0
284
     8
340
11
  0
ENDTAB
  0
TABLE
  2
BLOCK_RECORD
  5
1
330
0
100
AcDbSymbolTable
 70
     7
  0
BLOCK_RECORD
  5
1F
102
{ACAD_XDICTIONARY
360
1CE
102
}
330
1
100
AcDbSymbolTableRecord
100
AcDbBlockTableRecord
  2
*Model_Space
340
22
 70
     0
280
     1
281
     0
  0
BLOCK_RECORD
  5
D2
330
1
100
AcDbSymbolTableRecord
100
AcDbBlockTableRecord
  2
*Paper_Space
340
D3
 70
     0
280
     1
281
     0
  0
BLOCK_RECORD
  5
D6
330
1
100
AcDbSymbolTableRecord
100
AcDbBlockTableRecord
  2
*Paper_Space0
340
D7
 70
     0
280
     1
281
     0
  0
BLOCK_RECORD
  5
6EC
330
1
100
AcDbSymbolTableRecord
100
AcDbBlockTableRecord
  2
*D1
340
0
 70
     0
280
     1
281
     0
  0
BLOCK_RECORD
  5
6F9
330
1
100
AcDbSymbolTableRecord
100
AcDbBlockTableRecord
  2
*D2
340
0
 70
     0
280
     1
281
     0
  0
ENDTAB
  0
ENDSEC
  0
SECTION
  2
BLOCKS
  0
BLOCK
  5
20
330
1F
100
AcDbEntity
  8
0
100
AcDbBlockBegin
  2
*Model_Space
 70
     0
 10
0.0
 20
0.0
 30
0.0
  3
*Model_Space
  1

  0
ENDBLK
  5
21
330
1F
100
AcDbEntity
  8
0
100
AcDbBlockEnd
  0
BLOCK
  5
D4
330
D2
100
AcDbEntity
 67
     1
  8
0
100
AcDbBlockBegin
  2
*Paper_Space
 70
     0
 10
0.0
 20
0.0
 30
0.0
  3
*Paper_Space
  1

  0
ENDBLK
  5
D5
330
D2
100
AcDbEntity
 67
     1
  8
0
100
AcDbBlockEnd
  0
BLOCK
  5
D8
330
D6
100
AcDbEntity
 67
     1
  8
0
100
AcDbBlockBegin
  2
*Paper_Space0
 70
     0
 10
0.0
 20
0.0
 30
0.0
  3
*Paper_Space0
  1

  0
ENDBLK
  5
D9
330
D6
100
AcDbEntity
 67
     1
  8
0
100
AcDbBlockEnd
  0
BLOCK
  5
6ED
330
6EC
100
AcDbEntity
  8
0
100
AcDbBlockBegin
  2
*D1
 70
     1
 10
0.0
 20
0.0
 30
0.0
  3
*D1
  1

  0
LINE
  5
7A8
330
6EC
100
AcDbEntity
  8
寸法
  6
Continuous
 62
     0
440
 16777216
370
    -2
100
AcDbLine
 10
625.9947368185487
 20
391.0736260243775
 30
0.0
 11
640.4983482741169
 21
391.0736260243776
 31
0.0
  0
LINE
  5
7A9
330
6EC
100
AcDbEntity
  8
寸法
  6
Continuous
 62
     0
440
 16777216
370
    -2
100
AcDbLine
 10
625.9947368185487
 20
433.073669368191
 30
0.0
 11
640.4983482741169
 21
433.0736693681911
 31
0.0
  0
LINE
  5
7AA
330
6EC
100
AcDbEntity
  8
寸法
  6
Continuous
 62
     0
440
 16777216
370
    -2
100
AcDbLine
 10
640.3183482741169
 20
393.0736260243776
 30
0.0
 11
640.3183482741169
 21
395.1093250903897
 31
0.0
  0
LINE
  5
7AB
330
6EC
100
AcDbEntity
  8
寸法
  6
Continuous
 62
     0
440
 16777216
370
    -2
100
AcDbLine
 10
640.3183482741169
 20
431.0736693681911
 30
0.0
 11
640.3183482741169
 21
429.0922796358442
 31
0.0
  0
SOLID
  5
7AC
330
6EC
100
AcDbEntity
  8
寸法
  6
Continuous
 62
     0
440
 16777216
100
AcDbTrace
 10
639.9850149407836
 20
393.0736260243775
 30
0.0
 11
640.6516816074502
 21
393.0736260243776
 31
0.0
 12
640.3183482741169
 22
391.0736260243776
 32
0.0
 13
640.3183482741169
 23
391.0736260243776
 33
0.0
  0
SOLID
  5
7AD
330
6EC
100
AcDbEntity
  8
寸法
  6
Continuous
 62
     0
440
 16777216
100
AcDbTrace
 10
639.9850149407836
 20
431.073669368191
 30
0.0
 11
640.6516816074502
 21
431.0736693681911
 31
0.0
 12
640.3183482741169
 22
433.0736693681911
 32
0.0
 13
640.3183482741169
 23
433.0736693681911
 33
0.0
  0
MTEXT
  5
7AE
330
6EC
100
AcDbEntity
  8
寸法
  6
Continuous
 62
     0
440
 16777216
100
AcDbMText
 10
640.3183482741169
 20
412.1008023631166
 30
0.0
 40
3.0
 41
0.0
 46
0.0
 71
     5
 72
     1
  1
\A1;{\fMS PGothic|b0|i0|c128|p50;開口Φ１１０以下}
 11
0.0000000000000001
 21
1.0
 31
0.0
 73
     1
 44
1.0
  0
POINT
  5
7AF
330
6EC
100
AcDbEntity
  8
Defpoints
  6
Continuous
 62
     0
440
 16777216
100
AcDbPoint
 10
625.9322368185487
 20
391.0736260243775
 30
0.0
  0
POINT
  5
7B0
330
6EC
100
AcDbEntity
  8
Defpoints
  6
Continuous
 62
     0
440
 16777216
100
AcDbPoint
 10
625.9322368185487
 20
433.073669368191
 30
0.0
  0
POINT
  5
7B1
330
6EC
100
AcDbEntity
  8
Defpoints
  6
Continuous
 62
     0
440
 16777216
100
AcDbPoint
 10
640.3183482741169
 20
433.0736693681911
 30
0.0
  0
ENDBLK
  5
6EE
330
6EC
100
AcDbEntity
  8
0
100
AcDbBlockEnd
  0
BLOCK
  5
6FA
330
6F9
100
AcDbEntity
  8
0
100
AcDbBlockBegin
  2
*D2
 70
     1
 10
0.0
 20
0.0
 30
0.0
  3
*D2
  1

  0
LINE
  5
760
330
6F9
100
AcDbEntity
  8
寸法
  6
Continuous
 62
     0
440
 16777216
370
    -2
100
AcDbLine
 10
562.0309801673381
 20
350.911511177884
 30
0.0
 11
562.0309801673381
 21
342.5069500985465
 31
0.0
  0
LINE
  5
761
330
6F9
100
AcDbEntity
  8
寸法
  6
Continuous
 62
     0
440
 16777216
370
    -2
100
AcDbLine
 10
592.031001334001
 20
350.911511177884
 30
0.0
 11
592.031001334001
 21
342.5069500985465
 31
0.0
  0
LINE
  5
762
330
6F9
100
AcDbEntity
  8
寸法
  6
Continuous
 62
     0
440
 16777216
370
    -2
100
AcDbLine
 10
564.0309801673381
 20
342.6869500985465
 30
0.0
 11
590.0310013340011
 21
342.6869500985465
 31
0.0
  0
SOLID
  5
763
330
6F9
100
AcDbEntity
  8
寸法
  6
Continuous
 62
     0
440
 16777216
100
AcDbTrace
 10
564.0309801673381
 20
343.0202834318798
 30
0.0
 11
564.0309801673381
 21
342.3536167652132
 31
0.0
 12
562.0309801673381
 22
342.6869500985465
 32
0.0
 13
562.0309801673381
 23
342.6869500985465
 33
0.0
  0
SOLID
  5
764
330
6F9
100
AcDbEntity
  8
寸法
  6
Continuous
 62
     0
440
 16777216
100
AcDbTrace
 10
590.0310013340011
 20
343.0202834318798
 30
0.0
 11
590.0310013340011
 21
342.3536167652132
 31
0.0
 12
592.031001334001
 22
342.6869500985465
 32
0.0
 13
592.031001334001
 23
342.6869500985465
 33
0.0
  0
MTEXT
  5
765
330
6F9
100
AcDbEntity
  8
寸法
  6
Continuous
 62
     0
440
 16777216
100
AcDbMText
 10
577.0309907506696
 20
345.6471773712737
 30
0.0
 40
3.0
 41
0.0
 46
0.0
 71
     5
 72
     1
  1
\A1;{\fMS PGothic|b0|i0|c128|p50;壁厚１００以上}
 73
     1
 44
1.0
  0
POINT
  5
766
330
6F9
100
AcDbEntity
  8
Defpoints
  6
Continuous
 62
     0
440
 16777216
100
AcDbPoint
 10
562.0309801673381
 20
350.911511177884
 30
0.0
  0
POINT
  5
767
330
6F9
100
AcDbEntity
  8
Defpoints
  6
Continuous
 62
     0
440
 16777216
100
AcDbPoint
 10
592.031001334001
 20
350.911511177884
 30
0.0
  0
POINT
  5
768
330
6F9
100
AcDbEntity
  8
Defpoints
  6
Continuous
 62
     0
440
 16777216
100
AcDbPoint
 10
592.031001334001
 20
342.6869500985465
 30
0.0
  0
ENDBLK
  5
6FB
330
6F9
100
AcDbEntity
  8
0
100
AcDbBlockEnd
  0
ENDSEC
  0
SECTION
  2
ENTITIES
  0
LINE
  5
4D4
330
1F
100
AcDbEntity
  8
図面枠
100
AcDbLine
 10
650.4720142505939
 20
512.6236590285641
 30
0.0
 11
650.4720142505939
 21
215.6236590285641
 31
0.0
  0
LINE
  5
4D5
330
1F
100
AcDbEntity
  8
図面枠
100
AcDbLine
 10
440.4720142505939
 20
215.6236590285641
 30
0.0
 11
650.4720142505939
 21
215.6236590285641
 31
0.0
  0
LINE
  5
4D6
330
1F
100
AcDbEntity
  8
図面枠
100
AcDbLine
 10
440.4720142505939
 20
512.6236590285641
 30
0.0
 11
440.4720142505939
 21
215.6236590285641
 31
0.0
  0
LINE
  5
4D7
330
1F
100
AcDbEntity
  8
図面枠
100
AcDbLine
 10
650.4720142505939
 20
512.6236590285641
 30
0.0
 11
440.4720142505939
 21
512.6236590285641
 31
0.0
  0
LINE
  5
4D8
330
1F
100
AcDbEntity
  8
図面枠
100
AcDbLine
 10
650.4720142505939
 20
501.2256505027701
 30
0.0
 11
440.4720142505939
 21
501.2256505027701
 31
0.0
  0
LINE
  5
4D9
330
1F
100
AcDbEntity
  8
図面枠
100
AcDbLine
 10
461.5414208179886
 20
512.6236590285641
 30
0.0
 11
461.5414208179886
 21
501.2256505027701
 31
0.0
  0
MULTILEADER
  5
4DA
330
1F
100
AcDbEntity
  8
文字
  6
Continuous
160
               712
310
C8020000190000000C00000016000000000000C00C00000033000000000000000C00000013000000993A0000C8000000260000005ABCEFF2DD698040329D218278877D40000000000000000000000000000000000000000000000000000000000000F03F000000000000F03F000000000000000000000000000000002D4E7A
310
7A9395D54E0752C1580000B7EF06000000010000000000000000000840000000000000F03F0000000000000000000000000000F03F0000000000000000000000000000000000000000000000000000000001000000320000002DFF33FF200030FFB430B730C330AF300000000000000000000000000C000000330000000000
310
00000C00000010000000040000000C00000016000000000000C00C00000012000000000000000C00000013000000010000000C00000014000000010000005400000007000000030000006B5CF6EF248881402D8177E68ECF7C40000000000000000056AC87723F908140E44D958D74B37C400000000000000000CDE2106C06
310
84814006CE7463C8C87C4000000000000000000C00000014000000010000000C00000013000000891300003C00000006000000020000009C9F03AE158681409927F6A42BCC7C4000000000000000002210722F033D8140980388E8DE7D7D4000000000000000000C00000013000000112700003C0000000600000002000000
310
2210722F033D8140980388E8DE7D7D400000000000000000A7FBC3E7213A8140980388E8DE7D7D4000000000000000000C00000016000000000000C00C00000012000000000000000C00000017000000000000000C000000130000009A3A00003C0000000600000002000000CE8D350A3B6E8040980388E8DE7D7D40000000
310
0000000000A7FBC3E7213A8140980388E8DE7D7D4000000000000000000C00000016000000000000C00C00000012000000000000000C00000017000000FFFFFFFF0C0000003300000000000000
100
AcDbMLeader
270
     2
300
CONTEXT_DATA{
 40
1.0
 10
525.6888280662441
 20
471.8669209778831
 30
0.0
 41
3.0
140
2.0
145
0.09
174
     5
175
     5
176
     2
177
     0
290
     1
304
中空間仕切壁
 11
0.0
 21
0.0
 31
1.0
340
11
 12
551.1765553389714
 22
476.0294209778832
 32
0.0
 13
1.0
 23
0.0
 33
0.0
 42
0.0
 43
34.61383382190525
 44
10.44876831334256
 45
1.0
170
     1
 90
-1073741824
171
     3
172
     5
 91
-1073741824
141
0.0
 92
        0
291
     0
292
     0
173
     0
293
     0
142
0.0
143
0.0
294
     0
295
     0
296
     0
110
559.9296285584876
120
459.2159553367803
130
0.0
111
1.0
121
0.0
131
0.0
112
0.0
122
1.0
132
0.0
297
     0
302
LEADER{
290
     1
291
     1
 10
551.6265553389714
 20
471.8669209778831
 30
0.0
 11
-1.0
 21
0.0
 31
0.0
 90
        0
 40
0.36
304
LEADER_LINE{
 10
562.0309801673381
 20
459.2159553367803
 30
0.0
 91
        0
305
}
271
     0
303
}
272
     9
273
     9
301
}
340
12E
 90
 33904128
170
     1
 91
-1056964608
341
14
171
    -2
290
     1
291
     1
 41
0.36
 42
2.0
172
     2
343
11
173
     5
 95
        5
174
     1
175
     2
 92
-1056964608
292
     0
 93
-1056964608
 10
1.0
 20
1.0
 30
1.0
 43
0.0
176
     0
293
     0
294
     0
178
     0
179
     3
 45
1.0
271
     0
272
     9
273
     9
295
     0
  0
DIMENSION
  5
4DB
330
1F
100
AcDbEntity
  8
寸法
  6
Continuous
100
AcDbDimension
280
     0
  2
*D2
 10
592.031001334001
 20
342.6869500985465
 30
0.0
 11
577.0309907506696
 21
345.6471773712737
 31
0.0
 70
    32
  1
{\fMS PGothic|b0|i0|c128|p50;壁厚１００以上}
 71
     5
 42
30.00002116666292
 73
     0
 74
     0
 75
     0
  3
Standard
100
AcDbAlignedDimension
 13
562.0309801673381
 23
350.911511177884
 33
0.0
 14
592.031001334001
 24
350.911511177884
 34
0.0
100
AcDbRotatedDimension
1001
ACAD
1000
DSTYLE
1002
{
1070
    42
1040
0.0
1070
    41
1040
2.0
1070
   147
1040
1.0
1070
    77
1070
     1
1070
   140
1040
3.0
1002
}
  0
ARC
  5
4DC
330
1F
100
AcDbEntity
  8
防火材
  6
Continuous
370
    13
100
AcDbCircle
 10
548.6352294873329
 20
404.7534360661581
 30
0.0
 40
17.41778271714916
100
AcDbArc
 50
155.1482197854805
 51
198.5369318400999
  0
ARC
  5
4DD
330
1F
100
AcDbEntity
  8
防火材
  6
Continuous
370
    13
100
AcDbCircle
 10
543.1374747916558
 20
418.5024482234213
 30
0.0
 40
12.14767191885911
100
AcDbArc
 50
148.0471781602285
 51
181.4190311355596
  0
ARC
  5
4DE
330
1F
100
AcDbEntity
  8
防火材
  6
Continuous
370
    13
100
AcDbCircle
 10
521.2734368161712
 20
418.5024482233808
 30
0.0
 40
13.22467872618547
100
AcDbArc
 50
330.9140244606179
 51
29.08597553937628
  0
POLYLINE
  5
4DF
330
1F
100
AcDbEntity
  8
躯体・通線物他
  6
Continuous
370
    13
100
AcDb2dPolyline
 66
     1
 10
0.0
 20
0.0
 30
0.0
  0
VERTEX
  5
4E0
330
4DF
100
AcDbEntity
  8
躯体・通線物他
  6
Continuous
370
    13
100
AcDbVertex
100
AcDb2dVertex
 10
562.0309801673381
 20
467.0738925023426
 30
0.0
  0
VERTEX
  5
4E1
330
4DF
100
AcDbEntity
  8
躯体・通線物他
  6
Continuous
370
    13
100
AcDbVertex
100
AcDb2dVertex
 10
562.0309801673381
 20
433.0736693681908
 30
0.0
  0
SEQEND
  5
4E2
330
4DF
100
AcDbEntity
  8
躯体・通線物他
  6
Continuous
370
    13
  0
POLYLINE
  5
4E3
330
1F
100
AcDbEntity
  8
躯体・通線物他
  6
Continuous
370
    13
100
AcDb2dPolyline
 66
     1
 10
0.0
 20
0.0
 30
0.0
  0
VERTEX
  5
4E4
330
4E3
100
AcDbEntity
  8
躯体・通線物他
  6
Continuous
370
    13
100
AcDbVertex
100
AcDb2dVertex
 10
592.0313823339568
 20
467.0738925023426
 30
0.0
  0
VERTEX
  5
4E5
330
4E3
100
AcDbEntity
  8
躯体・通線物他
  6
Continuous
370
    13
100
AcDbVertex
100
AcDb2dVertex
 10
592.0313823339568
 20
433.0736693681908
 30
0.0
  0
SEQEND
  5
4E6
330
4E3
100
AcDbEntity
  8
躯体・通線物他
  6
Continuous
370
    13
  0
POLYLINE
  5
4E7
330
1F
100
AcDbEntity
  8
躯体・通線物他
  6
Continuous
370
    13
100
AcDb2dPolyline
 66
     1
 10
0.0
 20
0.0
 30
0.0
  0
VERTEX
  5
4E8
330
4E7
100
AcDbEntity
  8
躯体・通線物他
  6
Continuous
370
    13
100
AcDbVertex
100
AcDb2dVertex
 10
568.0312214673099
 20
470.3886854990291
 30
0.0
  0
VERTEX
  5
4E9
330
4E7
100
AcDbEntity
  8
躯体・通線物他
  6
Continuous
370
    13
100
AcDbVertex
100
AcDb2dVertex
 10
568.0312214673084
 20
433.0736693681908
 30
0.0
  0
SEQEND
  5
4EA
330
4E7
100
AcDbEntity
  8
躯体・通線物他
  6
Continuous
370
    13
  0
POLYLINE
  5
4EB
330
1F
100
AcDbEntity
  8
躯体・通線物他
  6
Continuous
370
    13
100
AcDb2dPolyline
 66
     1
 10
0.0
 20
0.0
 30
0.0
  0
VERTEX
  5
4EC
330
4EB
100
AcDbEntity
  8
躯体・通線物他
  6
Continuous
370
    13
100
AcDbVertex
100
AcDb2dVertex
 10
568.0312214673099
 20
470.389438865953
 30
0.0
  0
VERTEX
  5
4ED
330
4EB
100
AcDbEntity
  8
躯体・通線物他
  6
Continuous
370
    13
100
AcDbVertex
100
AcDb2dVertex
 10
568.0312214673099
 20
470.3886854990291
 30
0.0
  0
SEQEND
  5
4EE
330
4EB
100
AcDbEntity
  8
躯体・通線物他
  6
Continuous
370
    13
  0
POLYLINE
  5
4EF
330
1F
100
AcDbEntity
  8
躯体・通線物他
  6
Continuous
370
    13
100
AcDb2dPolyline
 66
     1
 10
0.0
 20
0.0
 30
0.0
  0
VERTEX
  5
4F0
330
4EF
100
AcDbEntity
  8
躯体・通線物他
  6
Continuous
370
    13
100
AcDbVertex
100
AcDb2dVertex
 10
565.031100817324
 20
469.4229361855366
 30
0.0
  0
VERTEX
  5
4F1
330
4EF
100
AcDbEntity
  8
躯体・通線物他
  6
Continuous
370
    13
100
AcDbVertex
100
AcDb2dVertex
 10
565.031100817324
 20
433.0736693681908
 30
0.0
  0
SEQEND
  5
4F2
330
4EF
100
AcDbEntity
  8
躯体・通線物他
  6
Continuous
370
    13
  0
POLYLINE
  5
4F3
330
1F
100
AcDbEntity
  8
躯体・通線物他
  6
Continuous
370
    13
100
AcDb2dPolyline
 66
     1
 10
0.0
 20
0.0
 30
0.0
  0
VERTEX
  5
4F4
330
4F3
100
AcDbEntity
  8
躯体・通線物他
  6
Continuous
370
    13
100
AcDbVertex
100
AcDb2dVertex
 10
565.031100817324
 20
469.4245352874829
 30
0.0
  0
VERTEX
  5
4F5
330
4F3
100
AcDbEntity
  8
躯体・通線物他
  6
Continuous
370
    13
100
AcDbVertex
100
AcDb2dVertex
 10
565.031100817324
 20
469.4229361855366
 30
0.0
  0
SEQEND
  5
4F6
330
4F3
100
AcDbEntity
  8
躯体・通線物他
  6
Continuous
370
    13
  0
POLYLINE
  5
4F7
330
1F
100
AcDbEntity
  8
躯体・通線物他
  6
Continuous
370
    13
100
AcDb2dPolyline
 66
     1
 10
0.0
 20
0.0
 30
0.0
  0
VERTEX
  5
4F8
330
4F7
100
AcDbEntity
  8
躯体・通線物他
  6
Continuous
370
    13
100
AcDbVertex
100
AcDb2dVertex
 10
589.0312616839708
 20
464.723723168923
 30
0.0
  0
VERTEX
  5
4F9
330
4F7
100
AcDbEntity
  8
躯体・通線物他
  6
Continuous
370
    13
100
AcDbVertex
100
AcDb2dVertex
 10
589.0312616839708
 20
433.0736693681908
 30
0.0
  0
SEQEND
  5
4FA
330
4F7
100
AcDbEntity
  8
躯体・通線物他
  6
Continuous
370
    13
  0
POLYLINE
  5
4FB
330
1F
100
AcDbEntity
  8
躯体・通線物他
  6
Continuous
370
    13
100
AcDb2dPolyline
 66
     1
 10
0.0
 20
0.0
 30
0.0
  0
VERTEX
  5
4FC
330
4FB
100
AcDbEntity
  8
躯体・通線物他
  6
Continuous
370
    13
100
AcDbVertex
100
AcDb2dVertex
 10
586.031141033985
 20
463.7584889698635
 30
0.0
  0
VERTEX
  5
4FD
330
4FB
100
AcDbEntity
  8
躯体・通線物他
  6
Continuous
370
    13
100
AcDbVertex
100
AcDb2dVertex
 10
586.031141033985
 20
433.0736693681908
 30
0.0
  0
SEQEND
  5
4FE
330
4FB
100
AcDbEntity
  8
躯体・通線物他
  6
Continuous
370
    13
  0
POLYLINE
  5
4FF
330
1F
100
AcDbEntity
  8
躯体・通線物他
  6
Continuous
370
    13
100
AcDb2dPolyline
 66
     1
 10
0.0
 20
0.0
 30
0.0
  0
VERTEX
  5
500
330
4FF
100
AcDbEntity
  8
躯体・通線物他
  6
Continuous
370
    13
100
AcDbVertex
100
AcDb2dVertex
 10
562.0309801673381
 20
357.0733605568946
 30
0.0
  0
VERTEX
  5
501
330
4FF
100
AcDbEntity
  8
躯体・通線物他
  6
Continuous
370
    13
100
AcDbVertex
100
AcDb2dVertex
 10
562.0309801673381
 20
391.0736260243803
 30
0.0
  0
SEQEND
  5
502
330
4FF
100
AcDbEntity
  8
躯体・通線物他
  6
Continuous
370
    13
  0
POLYLINE
  5
503
330
1F
100
AcDbEntity
  8
躯体・通線物他
  6
Continuous
370
    13
100
AcDb2dPolyline
 66
     1
 10
0.0
 20
0.0
 30
0.0
  0
VERTEX
  5
504
330
503
100
AcDbEntity
  8
躯体・通線物他
  6
Continuous
370
    13
100
AcDbVertex
100
AcDb2dVertex
 10
592.031001334001
 20
357.0733605568946
 30
0.0
  0
VERTEX
  5
505
330
503
100
AcDbEntity
  8
躯体・通線物他
  6
Continuous
370
    13
100
AcDbVertex
100
AcDb2dVertex
 10
592.031001334001
 20
391.0736260243803
 30
0.0
  0
SEQEND
  5
506
330
503
100
AcDbEntity
  8
躯体・通線物他
  6
Continuous
370
    13
  0
POLYLINE
  5
507
330
1F
100
AcDbEntity
  8
躯体・通線物他
  6
Continuous
370
    13
100
AcDb2dPolyline
 66
     1
 10
0.0
 20
0.0
 30
0.0
  0
VERTEX
  5
508
330
507
100
AcDbEntity
  8
躯体・通線物他
  6
Continuous
370
    13
100
AcDbVertex
100
AcDb2dVertex
 10
586.031141033985
 20
353.7553350434559
 30
0.0
  0
VERTEX
  5
509
330
507
100
AcDbEntity
  8
躯体・通線物他
  6
Continuous
370
    13
100
AcDbVertex
100
AcDb2dVertex
 10
586.031141033985
 20
391.0736260243803
 30
0.0
  0
SEQEND
  5
50A
330
507
100
AcDbEntity
  8
躯体・通線物他
  6
Continuous
370
    13
  0
POLYLINE
  5
50B
330
1F
100
AcDbEntity
  8
躯体・通線物他
  6
Continuous
370
    13
100
AcDb2dPolyline
 66
     1
 10
0.0
 20
0.0
 30
0.0
  0
VERTEX
  5
50C
330
50B
100
AcDbEntity
  8
躯体・通線物他
  6
Continuous
370
    13
100
AcDbVertex
100
AcDb2dVertex
 10
589.0308383506863
 20
354.7203537719529
 30
0.0
  0
VERTEX
  5
50D
330
50B
100
AcDbEntity
  8
躯体・通線物他
  6
Continuous
370
    13
100
AcDbVertex
100
AcDb2dVertex
 10
589.0308383506863
 20
391.0736260243803
 30
0.0
  0
SEQEND
  5
50E
330
50B
100
AcDbEntity
  8
躯体・通線物他
  6
Continuous
370
    13
  0
POLYLINE
  5
50F
330
1F
100
AcDbEntity
  8
躯体・通線物他
  6
Continuous
370
    13
100
AcDb2dPolyline
 66
     1
 10
0.0
 20
0.0
 30
0.0
  0
VERTEX
  5
510
330
50F
100
AcDbEntity
  8
躯体・通線物他
  6
Continuous
370
    13
100
AcDbVertex
100
AcDb2dVertex
 10
568.0312214673099
 20
360.3855315726216
 30
0.0
  0
VERTEX
  5
511
330
50F
100
AcDbEntity
  8
躯体・通線物他
  6
Continuous
370
    13
100
AcDbVertex
100
AcDb2dVertex
 10
568.0312214673099
 20
391.0736260243803
 30
0.0
  0
SEQEND
  5
512
330
50F
100
AcDbEntity
  8
躯体・通線物他
  6
Continuous
370
    13
  0
POLYLINE
  5
513
330
1F
100
AcDbEntity
  8
躯体・通線物他
  6
Continuous
370
    13
100
AcDb2dPolyline
 66
     1
 10
0.0
 20
0.0
 30
0.0
  0
VERTEX
  5
514
330
513
100
AcDbEntity
  8
躯体・通線物他
  6
Continuous
370
    13
100
AcDbVertex
100
AcDb2dVertex
 10
565.0306774840409
 20
359.4195666758033
 30
0.0
  0
VERTEX
  5
515
330
513
100
AcDbEntity
  8
躯体・通線物他
  6
Continuous
370
    13
100
AcDbVertex
100
AcDb2dVertex
 10
565.0306774840409
 20
391.0736260243803
 30
0.0
  0
SEQEND
  5
516
330
513
100
AcDbEntity
  8
躯体・通線物他
  6
Continuous
370
    13
  0
MULTILEADER
  5
517
330
1F
100
AcDbEntity
  8
文字
  6
Continuous
160
               712
310
C8020000190000000C00000016000000000000C00C00000033000000000000000C00000013000000993A0000C8000000260000002A5E5FB873BC7B40866A9C951C537B40000000000000000000000000000000000000000000000000000000000000F03F000000000000F03F000000000000000000000000000000008B95E3
310
53AD30E330C330D7300000B7EF06000000010000000000000000000840000000000000F03F0000000000000000000000000000F03F0000000000000000000000000000000000000000000000000000000001000000320000002DFF33FF200030FFB430B730C330AF300000000000000000000000000C000000330000000000
310
00000C00000010000000040000000C00000016000000000000C00C00000012000000000000000C00000013000000010000000C00000014000000010000005400000007000000030000001FCB2E2D30597D4013AF7BB9471E7B4000000000000000009E296FB0AF647D40C879D7DAF1FF7A400000000000000000E418F69FF8
310
4F7D40DF71874BE9187B4000000000000000000C00000014000000010000000C00000013000000891300003C00000006000000020000000272926694547D4079908182981B7B400000000000000000187A3577D5397D40ECD002FC82497B4000000000000000000C00000013000000112700003C0000000600000002000000
310
187A3577D5397D40ECD002FC82497B4000000000000000002251D9E712347D40ECD002FC82497B4000000000000000000C00000016000000000000C00C00000012000000000000000C00000017000000000000000C000000130000009A3A00003C00000006000000020000005918485BFFC27B40ECD002FC82497B40000000
310
00000000002251D9E712347D40ECD002FC82497B4000000000000000000C00000016000000000000C00C00000012000000000000000C00000017000000FFFFFFFF0C0000003300000000000000
100
AcDbMLeader
270
     2
300
CONTEXT_DATA{
 40
1.0
 10
444.097342912313
 20
436.5944786176685
 30
0.0
 41
3.0
140
2.0
145
0.09
174
     5
175
     5
176
     2
177
     0
290
     1
304
{\fMS PGothic|b0|i0|c128|p50;開口キャップ}
 11
0.0
 21
0.0
 31
1.0
340
11
 12
467.1646156395858
 22
440.9103877085776
 32
0.0
 13
1.0
 23
0.0
 33
0.0
 42
0.0
 43
25.5442780519661
 44
0.0
 45
1.0
170
     1
 90
-1073741824
171
     3
172
     5
 91
-1073741824
141
0.0
 92
        0
291
     0
292
     0
173
     0
293
     0
142
0.0
143
0.0
294
     0
295
     0
296
     0
110
475.9176888591018
120
425.0115994717264
130
0.0
111
1.0
121
0.0
131
0.0
112
0.0
122
1.0
132
0.0
297
     0
302
LEADER{
290
     1
291
     1
 10
467.6146156395857
 20
436.5944786176685
 30
0.0
 11
-1.0
 21
0.0
 31
0.0
 90
        0
 40
0.36
304
LEADER_LINE{
 10
470.2928928701675
 20
431.9965465943355
 30
0.0
 91
        0
305
}
271
     0
303
}
272
     9
273
     9
301
}
340
12E
 90
 33904128
170
     1
 91
-1056964608
341
14
171
    -2
290
     1
291
     1
 41
0.36
 42
2.0
172
     2
343
11
173
     5
 95
        5
174
     1
175
     2
 92
-1056964608
292
     0
 93
-1056964608
 10
1.0
 20
1.0
 30
1.0
 43
0.0
176
     0
293
     0
294
     0
178
     0
179
     3
 45
1.0
271
     0
272
     9
273
     9
295
     0
  0
ARC
  5
518
330
1F
100
AcDbEntity
  8
躯体・通線物他
  6
Continuous
370
    13
100
AcDbCircle
 10
569.5315483904192
 20
460.5850444537079
 30
0.0
 40
9.91777992404102
100
AcDbArc
 50
40.86685288041778
 51
139.1361210353918
  0
ARC
  5
519
330
1F
100
AcDbEntity
  8
躯体・通線物他
  6
Continuous
370
    13
100
AcDbCircle
 10
584.5322604253927
 20
473.5623512466861
 30
0.0
 40
9.91777992404102
100
AcDbArc
 50
220.8638789646081
 51
319.1331471197219
  0
ARC
  5
51A
330
1F
100
AcDbEntity
  8
躯体・通線物他
  6
Continuous
370
    13
100
AcDbCircle
 10
569.5315483904192
 20
350.5818905273002
 30
0.0
 40
9.91777992404102
100
AcDbArc
 50
40.86685288041778
 51
139.1361210353918
  0
ARC
  5
51B
330
1F
100
AcDbEntity
  8
躯体・通線物他
  6
Continuous
370
    13
100
AcDbCircle
 10
584.5322604253927
 20
363.5591973202784
 30
0.0
 40
9.91777992404102
100
AcDbArc
 50
220.8638789646081
 51
319.1331471197219
  0
LINE
  5
51C
330
1F
100
AcDbEntity
  8
躯体・通線物他
  6
Continuous
370
    13
100
AcDbLine
 10
562.0309801673381
 20
391.0736260243803
 30
0.0
 11
592.0310013339996
 21
391.0736260243803
 31
0.0
  0
HATCH
  5
51D
330
1F
100
AcDbEntity
  8
躯体・通線物他
  6
Continuous
370
    13
100
AcDbHatch
 10
0.0
 20
0.0
 30
0.0
210
0.0
220
0.0
230
1.0
  2
SOLID
 70
     1
 71
     1
 91
        2
 92
        7
 72
     0
 73
     1
 93
        4
 10
592.0314035006271
 20
432.0736693681908
 10
592.0314035006271
 20
433.0736693681878
 10
562.0314246672856
 20
433.0736693681878
 10
562.0314035006213
 20
432.0736693681908
 97
        4
330
544
330
548
330
53F
330
549
 92
        7
 72
     0
 73
     1
 93
        4
 10
562.0310013340025
 20
392.0736260243743
 10
562.0309801673381
 20
391.0736260243773
 10
592.0309801673439
 20
391.0736260243773
 10
592.0309801673439
 20
392.0736260243743
 97
        4
330
538
330
53C
330
51E
330
53D
 75
     1
 76
     1
 47
0.0724020141144535
 98
        2
 10
572.9118443528095
 20
432.2243234615327
 10
575.5922835378988
 20
391.7515969224207
450
        0
451
        0
460
0.0
461
0.0
452
        0
462
0.0
453
        2
463
0.0
 63
     5
421
      255
463
1.0
 63
     2
421
 16776960
470
LINEAR
1001
GradientColor1ACI
1070
     5
1001
GradientColor2ACI
1070
     2
1001
ACAD
1010
0.0
1020
0.0
1030
0.0
  0
POLYLINE
  5
51E
102
{ACAD_REACTORS
330
51D
102
}
330
1F
100
AcDbEntity
  8
躯体・通線物他
  6
Continuous
370
    13
100
AcDb2dPolyline
 66
     1
 10
0.0
 20
0.0
 30
0.0
  0
VERTEX
  5
51F
330
51E
100
AcDbEntity
  8
躯体・通線物他
  6
Continuous
370
    13
100
AcDbVertex
100
AcDb2dVertex
 10
592.031001334001
 20
391.0736260243773
 30
0.0
  0
VERTEX
  5
520
330
51E
100
AcDbEntity
  8
躯体・通線物他
  6
Continuous
370
    13
100
AcDbVertex
100
AcDb2dVertex
 10
562.0309801673439
 20
391.0736260243773
 30
0.0
  0
SEQEND
  5
521
330
51E
100
AcDbEntity
  8
躯体・通線物他
  6
Continuous
370
    13
  0
MULTILEADER
  5
527
330
1F
100
AcDbEntity
  8
文字
  6
Continuous
160
               704
310
C0020000190000000C00000016000000000000C00C00000033000000000000000C00000013000000993A0000C000000026000000636329E9610983404573CA9E04507840000000000000000000000000000000000000000000000000000000000000F03F000000000000F03F00000000000000000000000000000000AB8C1A
310
906972000003000000010000000000000000000840000000000000F03F0000000000000000000000000000F03F0000000000000000000000000000000000000000000000000000000001000000320000002DFF33FF200030FFB430B730C330AF300000B7300000AF30000000000C00000033000000000000000C0000001000
310
0000040000000C00000016000000000000C00C00000012000000000000000C00000013000000010000000C0000001400000001000000540000000700000003000000B3D9A3ABA6D2824014BB547F33D6784000000000000000001A3E5722A4CB8240B4E152ED74F378400000000000000000563FAD2B04D78240B144E05A54
310
DC784000000000000000000C00000014000000010000000C00000013000000891300003C0000000600000002000000858CA86BD5D48240E37F1AED43D978400000000000000000263E61955F088340ACD930056B46784000000000000000000C00000013000000122700003C0000000600000002000000263E61955F088340
310
ACD930056B4678400000000000000000A1520FDD400B8340ACD930056B46784000000000000000000C00000016000000000000C00C00000012000000000000000C00000017000000000000000C000000130000009A3A00003C0000000600000002000000A1520FDD400B8340ACD930056B4678400000000000000000EE91E3
310
D1846F8340ACD930056B46784000000000000000000C00000016000000000000C00C00000012000000000000000C00000017000000FFFFFFFF0C0000003300000000000000
100
AcDbMLeader
270
     2
300
CONTEXT_DATA{
 40
1.0
 10
609.4066716382114
 20
388.4011279972281
 30
0.0
 41
3.0
140
2.0
145
0.09
174
     5
175
     5
176
     0
177
     0
290
     1
304
貫通物
 11
0.0
 21
0.0
 31
1.0
340
11
 12
609.4966716382113
 22
392.5465825426826
 32
0.0
 13
1.0
 23
0.0
 33
0.0
 42
0.0
 43
25.5442780519661
 44
0.0
 45
1.0
170
     1
 90
-1073741824
171
     1
172
     5
 91
-1073741824
141
0.0
 92
        0
291
     0
292
     0
173
     0
293
     0
142
0.0
143
0.0
294
     0
295
     0
296
     0
110
635.2497448577276
120
374.718248851286
130
0.0
111
1.0
121
0.0
131
0.0
112
0.0
122
1.0
132
0.0
297
     0
302
LEADER{
290
     1
291
     1
 10
609.0466716382113
 20
388.4011279972281
 30
0.0
 11
1.0
 21
0.0
 31
0.0
 90
        1
 40
0.36
304
LEADER_LINE{
 10
601.4551436248614
 20
399.2160466420712
 30
0.0
 91
        0
305
}
271
     0
303
}
272
     9
273
     9
301
}
340
12E
 90
 33904128
170
     1
 91
-1056964608
341
14
171
    -2
290
     1
291
     1
 41
0.36
 42
2.0
172
     2
343
11
173
     5
 95
        5
174
     1
175
     2
 92
-1056964608
292
     0
 93
-1056964608
 10
1.0
 20
1.0
 30
1.0
 43
0.0
176
     0
293
     0
294
     0
178
     0
179
     1
 45
1.0
271
     0
272
     9
273
     9
295
     0
  0
DIMENSION
  5
529
330
1F
100
AcDbEntity
  8
寸法
  6
Continuous
100
AcDbDimension
280
     0
  2
*D1
 10
640.3183482741169
 20
433.0736693681911
 30
0.0
 11
640.3183482741169
 21
412.1008023631166
 31
0.0
 70
   160
  1
{\fMS PGothic|b0|i0|c128|p50;開口Φ１１０以下}
 71
     5
 42
42.00004334381356
 73
     0
 74
     0
 75
     0
 53
90.0
  3
Standard
100
AcDbAlignedDimension
 13
625.9322368185485
 23
391.0736260243773
 33
0.0
 14
625.9322368185485
 24
433.0736693681908
 34
0.0
 50
90.0
100
AcDbRotatedDimension
1001
ACAD
1000
DSTYLE
1002
{
1070
    41
1040
2.0
1070
    77
1070
     3
1070
   140
1040
3.0
1070
   147
1040
2.0
1002
}
  0
LINE
  5
52A
330
1F
100
AcDbEntity
  8
躯体・通線物他
  6
Continuous
370
    13
100
AcDbLine
 10
562.0309801673381
 20
442.9997408218508
 30
0.0
 11
568.0312214673088
 21
444.7478543367367
 31
0.0
  0
LINE
  5
52B
330
1F
100
AcDbEntity
  8
躯体・通線物他
  6
Continuous
370
    13
100
AcDbLine
 10
586.0311410339851
 20
449.9919605465191
 30
0.0
 11
592.0313823339568
 21
451.7400740614054
 31
0.0
  0
LINE
  5
52C
330
1F
100
AcDbEntity
  8
躯体・通線物他
  6
Continuous
370
    13
100
AcDbLine
 10
562.0309801673381
 20
444.8615455705069
 30
0.0
 11
568.0312214673088
 21
446.6096590853928
 31
0.0
  0
LINE
  5
52D
330
1F
100
AcDbEntity
  8
躯体・通線物他
  6
Continuous
370
    13
100
AcDbLine
 10
586.0311410339851
 20
451.8537652951752
 30
0.0
 11
592.0313823339568
 21
453.6018788100616
 31
0.0
  0
LINE
  5
52E
330
1F
100
AcDbEntity
  8
躯体・通線物他
  6
Continuous
370
    13
100
AcDbLine
 10
562.0309801673381
 20
446.9340627193835
 30
0.0
 11
568.031221467309
 21
448.6821762342694
 31
0.0
  0
LINE
  5
52F
330
1F
100
AcDbEntity
  8
躯体・通線物他
  6
Continuous
370
    13
100
AcDbLine
 10
586.0311410339851
 20
453.9262824440518
 30
0.0
 11
592.0313823339568
 21
455.6743959589382
 31
0.0
  0
LINE
  5
530
330
1F
100
AcDbEntity
  8
躯体・通線物他
  6
Continuous
370
    13
100
AcDbLine
 10
562.0309801673381
 20
367.6569473751726
 30
0.0
 11
568.0312214673088
 21
369.4050608900586
 31
0.0
  0
LINE
  5
531
330
1F
100
AcDbEntity
  8
躯体・通線物他
  6
Continuous
370
    13
100
AcDbLine
 10
586.0311410339851
 20
374.6491670998409
 30
0.0
 11
592.0313823339568
 21
376.3972806147274
 31
0.0
  0
LINE
  5
532
330
1F
100
AcDbEntity
  8
躯体・通線物他
  6
Continuous
370
    13
100
AcDbLine
 10
562.0309801673381
 20
369.5187521238288
 30
0.0
 11
568.0312214673088
 21
371.2668656387148
 31
0.0
  0
LINE
  5
533
330
1F
100
AcDbEntity
  8
躯体・通線物他
  6
Continuous
370
    13
100
AcDbLine
 10
586.0311410339851
 20
376.5109718484971
 30
0.0
 11
592.0313823339568
 21
378.2590853633835
 31
0.0
  0
LINE
  5
534
330
1F
100
AcDbEntity
  8
躯体・通線物他
  6
Continuous
370
    13
100
AcDbLine
 10
562.0309801673381
 20
371.5912692727054
 30
0.0
 11
568.031221467309
 21
373.3393827875914
 31
0.0
  0
LINE
  5
535
330
1F
100
AcDbEntity
  8
躯体・通線物他
  6
Continuous
370
    13
100
AcDbLine
 10
586.0311410339851
 20
378.5834889973737
 30
0.0
 11
592.0313823339568
 21
380.3316025122601
 31
0.0
  0
HATCH
  5
536
330
1F
100
AcDbEntity
  8
防火材
  6
Continuous
370
    13
100
AcDbHatch
 10
0.0
 20
0.0
 30
0.0
210
0.0
220
0.0
230
1.0
  2
HONEY
 70
     0
 71
     0
 91
        5
 92
        7
 72
     0
 73
     1
 93
        4
 10
573.6726372065714
 20
429.5918834071146
 10
562.0314246672827
 20
429.5918834071146
 10
562.0314246672827
 20
426.2491067792909
 10
573.6726372065714
 20
426.2491067792909
 97
        0
 92
        7
 72
     0
 73
     1
 93
        4
 10
573.6726372065714
 20
426.2491067792909
 10
562.0314246672827
 20
426.2491067792909
 10
562.0314246672827
 20
419.5115053640328
 10
573.6726372065714
 20
419.5115053640327
 97
        0
 92
        7
 72
     0
 73
     1
 93
        4
 10
573.6726372065714
 20
419.5115053640327
 10
562.0314246672827
 20
419.5115053640328
 10
562.0314246672827
 20
401.3033145048939
 10
573.6726372065714
 20
401.3033145048939
 97
        0
 92
        7
 72
     0
 73
     1
 93
        4
 10
573.6726372065714
 20
401.3033145048939
 10
562.0314246672827
 20
401.3033145048939
 10
562.0314246672827
 20
396.4973537300204
 10
573.6726372065714
 20
396.4973537300204
 97
        0
 92
        7
 72
     0
 73
     1
 93
        4
 10
573.6726372065714
 20
396.4973537300204
 10
562.0314246672827
 20
396.4973537300204
 10
562.0314246672827
 20
394.5554119854535
 10
573.6726372065714
 20
394.5554119854535
 97
        0
 75
     1
 76
     1
 52
0.0
 41
5.0
 77
     0
 78
     3
 53
0.0
 43
440.4720142505939
 44
-1266.587568119421
 45
0.9375
 46
0.5412658773652741
 79
     2
 49
0.625
 49
-1.25
 53
120.0
 43
440.4720142505939
 44
-1266.587568119421
 45
-0.9374999999999998
 46
0.5412658773652744
 79
     2
 49
0.6249999999999992
 49
-1.249999999999998
 53
60.0
 43
440.4720142505939
 44
-1266.587568119421
 45
0.0000000000000002
 46
1.082531754730548
 79
     2
 49
-1.25
 49
0.625
 47
0.0739967389967628
 98
        5
 10
569.2525484875331
 20
427.467190482401
 10
567.1053900383959
 20
422.435381225054
 10
568.1419634550511
 20
412.4458210404648
 10
568.2159750708633
 20
399.7923736698851
 10
567.6236767467162
 20
396.0925415312579
1001
GradientColor1ACI
1070
     5
1001
GradientColor2ACI
1070
     2
1001
ACAD
1010
0.0
1020
0.0
1030
0.0
  0
LINE
  5
537
330
1F
100
AcDbEntity
  8
躯体・通線物他
  6
Continuous
370
    13
100
AcDbLine
 10
562.0309801673396
 20
392.0736260243773
 30
0.0
 11
592.031001334001
 21
392.0736260243773
 31
0.0
  0
POLYLINE
  5
538
102
{ACAD_REACTORS
330
51D
102
}
330
1F
100
AcDbEntity
  8
躯体・通線物他
  6
Continuous
370
    13
100
AcDb2dPolyline
 66
     1
 10
0.0
 20
0.0
 30
0.0
  0
VERTEX
  5
539
330
538
100
AcDbEntity
  8
躯体・通線物他
  6
Continuous
370
    13
100
AcDbVertex
100
AcDb2dVertex
 10
592.0310013340025
 20
392.0736260243743
 30
0.0
  0
VERTEX
  5
53A
330
538
100
AcDbEntity
  8
躯体・通線物他
  6
Continuous
370
    13
100
AcDbVertex
100
AcDb2dVertex
 10
562.0309801673454
 20
392.0736260243743
 30
0.0
  0
SEQEND
  5
53B
330
538
100
AcDbEntity
  8
躯体・通線物他
  6
Continuous
370
    13
  0
LINE
  5
53C
102
{ACAD_REACTORS
330
51D
102
}
330
1F
100
AcDbEntity
  8
躯体・通線物他
  6
Continuous
370
    13
100
AcDbLine
 10
562.0310013340025
 20
392.0736260243743
 30
0.0
 11
562.0309801673381
 21
391.0736260243803
 31
0.0
  0
LINE
  5
53D
102
{ACAD_REACTORS
330
51D
102
}
330
1F
100
AcDbEntity
  8
躯体・通線物他
  6
Continuous
370
    13
100
AcDbLine
 10
592.0309801673439
 20
391.0736260243773
 30
0.0
 11
592.0309801673439
 21
392.0736260243746
 31
0.0
  0
LINE
  5
53E
330
1F
100
AcDbEntity
  8
躯体・通線物他
  6
Continuous
370
    13
100
AcDbLine
 10
562.0314035006213
 20
432.0736693681937
 30
0.0
 11
592.0314246672827
 21
432.0736693681937
 31
0.0
  0
POLYLINE
  5
53F
102
{ACAD_REACTORS
330
51D
102
}
330
1F
100
AcDbEntity
  8
躯体・通線物他
  6
Continuous
370
    13
100
AcDb2dPolyline
 66
     1
 10
0.0
 20
0.0
 30
0.0
  0
VERTEX
  5
540
330
53F
100
AcDbEntity
  8
躯体・通線物他
  6
Continuous
370
    13
100
AcDbVertex
100
AcDb2dVertex
 10
592.0314246672842
 20
432.0736693681908
 30
0.0
  0
VERTEX
  5
541
330
53F
100
AcDbEntity
  8
躯体・通線物他
  6
Continuous
370
    13
100
AcDbVertex
100
AcDb2dVertex
 10
562.0314035006271
 20
432.0736693681908
 30
0.0
  0
SEQEND
  5
542
330
53F
100
AcDbEntity
  8
躯体・通線物他
  6
Continuous
370
    13
  0
LINE
  5
543
330
1F
100
AcDbEntity
  8
躯体・通線物他
  6
Continuous
370
    13
100
AcDbLine
 10
562.0314035006227
 20
433.0736693681908
 30
0.0
 11
592.0314246672842
 21
433.0736693681908
 31
0.0
  0
POLYLINE
  5
544
102
{ACAD_REACTORS
330
51D
102
}
330
1F
100
AcDbEntity
  8
躯体・通線物他
  6
Continuous
370
    13
100
AcDb2dPolyline
 66
     1
 10
0.0
 20
0.0
 30
0.0
  0
VERTEX
  5
545
330
544
100
AcDbEntity
  8
躯体・通線物他
  6
Continuous
370
    13
100
AcDbVertex
100
AcDb2dVertex
 10
592.0314246672857
 20
433.0736693681878
 30
0.0
  0
VERTEX
  5
546
330
544
100
AcDbEntity
  8
躯体・通線物他
  6
Continuous
370
    13
100
AcDbVertex
100
AcDb2dVertex
 10
562.0314035006286
 20
433.0736693681878
 30
0.0
  0
SEQEND
  5
547
330
544
100
AcDbEntity
  8
躯体・通線物他
  6
Continuous
370
    13
  0
LINE
  5
548
102
{ACAD_REACTORS
330
51D
102
}
330
1F
100
AcDbEntity
  8
躯体・通線物他
  6
Continuous
370
    13
100
AcDbLine
 10
562.0314246672856
 20
433.0736693681878
 30
0.0
 11
562.0314035006213
 21
432.0736693681937
 31
0.0
  0
LINE
  5
549
102
{ACAD_REACTORS
330
51D
102
}
330
1F
100
AcDbEntity
  8
躯体・通線物他
  6
Continuous
370
    13
100
AcDbLine
 10
592.0314035006271
 20
432.0736693681908
 30
0.0
 11
592.0314035006271
 21
433.0736693681881
 31
0.0
  0
LINE
  5
54A
330
1F
100
AcDbEntity
  8
防火材
  6
Continuous
370
    13
100
AcDbLine
 10
562.0314246672827
 20
429.5918834071146
 30
0.0
 11
562.0314246672827
 21
394.5554119854532
 31
0.0
  0
LINE
  5
54B
330
1F
100
AcDbEntity
  8
防火材
  6
Continuous
370
    13
100
AcDbLine
 10
561.5345268155615
 20
438.6100650031623
 30
0.0
 11
562.0309801673381
 21
438.6100650031621
 31
0.0
  0
LINE
  5
54C
330
1F
100
AcDbEntity
  8
防火材
  6
Continuous
370
    13
100
AcDbLine
 10
561.5345268155615
 20
385.5372303894087
 30
0.0
 11
562.0309801673381
 21
385.5372303894087
 31
0.0
  0
LINE
  5
54D
330
1F
100
AcDbEntity
  8
防火材
  6
Continuous
370
    13
100
AcDbLine
 10
561.5345268155615
 20
438.6100650031623
 30
0.0
 11
561.5345268155615
 21
385.5372303894087
 31
0.0
  0
LINE
  5
54E
330
1F
100
AcDbEntity
  8
防火材
  6
Continuous
370
    13
100
AcDbLine
 10
574.9960141927403
 20
394.1617614093286
 30
0.0
 11
574.9960141927403
 21
392.0736260243775
 31
0.0
  0
LINE
  5
54F
330
1F
100
AcDbEntity
  8
防火材
  6
Continuous
370
    13
100
AcDbLine
 10
573.6726372065714
 20
429.5918834071146
 30
0.0
 11
573.6726372065714
 21
394.5554119854535
 31
0.0
  0
LINE
  5
550
330
1F
100
AcDbEntity
  8
防火材
  6
Continuous
370
    13
100
AcDbLine
 10
574.1695350582926
 20
429.5918834071174
 30
0.0
 11
574.1695350582926
 21
394.5554119854535
 31
0.0
  0
LINE
  5
551
330
1F
100
AcDbEntity
  8
防火材
  6
Continuous
370
    13
100
AcDbLine
 10
562.0314246672827
 20
429.5918834071146
 30
0.0
 11
573.6726372065714
 21
429.5918834071146
 31
0.0
  0
HATCH
  5
552
330
1F
100
AcDbEntity
  8
防火材
  6
Continuous
370
    13
100
AcDbHatch
 10
0.0
 20
0.0
 30
0.0
210
0.0
220
0.0
230
1.0
  2
ANSI31
 70
     0
 71
     1
 91
        1
 92
        7
 72
     0
 73
     1
 93
        4
 10
572.8813770364031
 20
430.4232543759046
 10
572.8813770364031
 20
431.4393856241133
 10
562.8991202612487
 20
431.4393856241133
 10
562.8991202612487
 20
430.4232543759046
 97
        1
330
553
 75
     1
 76
     1
 52
0.0
 41
5.0
 77
     0
 78
     1
 53
45.0
 43
440.4720142505939
 44
-1266.587568119421
 45
-0.4419417382415923
 46
0.4419417382415923
 79
     0
 47
0.0461874542368166
 98
        1
 10
566.6424922266269
 20
430.8389398603014
1001
GradientColor1ACI
1070
     5
1001
GradientColor2ACI
1070
     2
1001
ACAD
1010
0.0
1020
0.0
1030
0.0
  0
LWPOLYLINE
  5
553
102
{ACAD_REACTORS
330
552
102
}
330
1F
100
AcDbEntity
  8
防火材
  6
Continuous
370
    13
100
AcDbPolyline
 90
        4
 70
     1
 43
0.0
 10
562.8991202612487
 20
431.4393856241133
 10
572.8813770364031
 20
431.4393856241133
 10
572.8813770364031
 20
430.4232543759046
 10
562.8991202612487
 20
430.4232543759046
  0
LINE
  5
554
330
1F
100
AcDbEntity
  8
防火材
  6
Continuous
370
    13
100
AcDbLine
 10
562.0314246672827
 20
394.5554119854535
 30
0.0
 11
573.6726372065714
 21
394.5554119854535
 31
0.0
  0
HATCH
  5
555
330
1F
100
AcDbEntity
  8
防火材
  6
Continuous
370
    13
100
AcDbHatch
 10
0.0
 20
0.0
 30
0.0
210
0.0
220
0.0
230
1.0
  2
ANSI31
 70
     0
 71
     1
 91
        1
 92
        7
 72
     0
 73
     1
 93
        4
 10
562.8991202612487
 20
393.7240410166635
 10
562.8991202612487
 20
392.7079097684548
 10
572.8813770364031
 20
392.7079097684548
 10
572.8813770364031
 20
393.7240410166635
 97
        1
330
556
 75
     1
 76
     1
 52
0.0
 41
5.0
 77
     0
 78
     1
 53
45.0
 43
440.4720142505939
 44
-1266.587568119421
 45
-0.4419417382415923
 46
0.4419417382415923
 79
     0
 47
0.0461874542368166
 98
        1
 10
566.6424922266269
 20
393.3083555322667
1001
GradientColor1ACI
1070
     5
1001
GradientColor2ACI
1070
     2
1001
ACAD
1010
0.0
1020
0.0
1030
0.0
  0
LWPOLYLINE
  5
556
102
{ACAD_REACTORS
330
555
102
}
330
1F
100
AcDbEntity
  8
防火材
  6
Continuous
370
    13
100
AcDbPolyline
 90
        4
 70
     1
 43
0.0
 10
562.8991202612487
 20
392.7079097684548
 10
572.8813770364031
 20
392.7079097684548
 10
572.8813770364031
 20
393.7240410166635
 10
562.8991202612487
 20
393.7240410166635
  0
LINE
  5
557
330
1F
100
AcDbEntity
  8
防火材
  6
Continuous
370
    13
100
AcDbLine
 10
562.8991202612487
 20
430.4232543759046
 30
0.0
 11
562.8991202612487
 21
393.7240410166635
 31
0.0
  0
LINE
  5
558
330
1F
100
AcDbEntity
  8
防火材
  6
Continuous
370
    13
100
AcDbLine
 10
572.8813770364031
 20
430.4232543759046
 30
0.0
 11
572.8813770364031
 21
393.7240410166635
 31
0.0
  0
LINE
  5
559
330
1F
100
AcDbEntity
  8
防火材
  6
Continuous
370
    13
100
AcDbLine
 10
574.1695350582926
 20
394.5554119854535
 30
0.0
 11
574.9960141927403
 21
394.1617614093286
 31
0.0
  0
LINE
  5
55A
330
1F
100
AcDbEntity
  8
防火材
  6
Continuous
370
    13
100
AcDbLine
 10
574.9960141927403
 20
429.9855339832422
 30
0.0
 11
574.9960141927403
 21
432.0736693681933
 31
0.0
  0
LINE
  5
55B
330
1F
100
AcDbEntity
  8
防火材
  6
Continuous
370
    13
100
AcDbLine
 10
574.1695350582926
 20
429.5918834071174
 30
0.0
 11
574.9960141927403
 21
429.9855339832422
 31
0.0
  0
MULTILEADER
  5
55C
330
1F
100
AcDbEntity
  8
文字
  6
Continuous
160
               708
310
C4020000190000000C00000016000000000000C00C00000033000000000000000C00000013000000993A0000C400000026000000CD56F626ACA882402684253B031B7740000000000000000000000000000000000000000000000000000000000000F03F000000000000F03F000000000000000000000000000000008B95E3
310
53DC88375FA067000005000000010000000000000000000840000000000000F03F0000000000000000000000000000F03F0000000000000000000000000000000000000000000000000000000001000000320000002DFF33FF200030FFB430B730C330AF300000000000000000000000000C00000033000000000000000C00
310
000010000000040000000C00000016000000000000C00C00000012000000000000000C00000013000000010000000C0000001400000001000000540000000700000003000000423CF26A5C26824029A9B74EB2547840000000000000000060DAA64C981E82405C6D7B922D7178400000000000000000EBF5B3518F2A8240A3
310
7D2A05465B784000000000000000000C00000014000000010000000C00000013000000891300003C0000000600000002000000171953DE752882406613F129FC57784000000000000000004A1AD15E58A882408CEA8BA16911774000000000000000000C00000013000000122700003C00000006000000020000004A1AD15E
310
58A882408CEA8BA1691177400000000000000000C52E7FA639AB82408CEA8BA16911774000000000000000000C00000016000000000000C00C00000012000000000000000C00000017000000000000000C000000130000009A3A00003C0000000600000002000000C52E7FA639AB82408CEA8BA16911774000000000000000
310
006FE224E1945583408CEA8BA16911774000000000000000000C00000016000000000000C00C00000012000000000000000C00000017000000FFFFFFFF0C0000003300000000000000
100
AcDbMLeader
270
     2
300
CONTEXT_DATA{
 40
1.0
 10
597.4031495987079
 20
369.0882888284184
 30
0.0
 41
3.0
140
2.0
145
0.09
174
     5
175
     5
176
     0
177
     0
290
     1
304
{\fMS PGothic|b0|i0|c128|p50;開口補強枠}
 11
0.0
 21
0.0
 31
1.0
340
11
 12
597.4931495987079
 22
373.2507888284184
 32
0.0
 13
1.0
 23
0.0
 33
0.0
 42
0.0
 43
25.5442780519661
 44
0.0
 45
1.0
170
     1
 90
-1073741824
171
     1
172
     5
 91
-1073741824
141
0.0
 92
        0
291
     0
292
     0
173
     0
293
     0
142
0.0
143
0.0
294
     0
295
     0
296
     0
110
623.2462228182241
120
355.4054096824764
130
0.0
111
1.0
121
0.0
131
0.0
112
0.0
122
1.0
132
0.0
297
     0
302
LEADER{
290
     1
291
     1
 10
597.0431495987079
 20
369.0882888284184
 30
0.0
 11
1.0
 21
0.0
 31
0.0
 90
        1
 40
0.36
304
LEADER_LINE{
 10
579.8243649516479
 20
391.0736260243773
 30
0.0
 91
        0
305
}
271
     0
303
}
272
     9
273
     9
301
}
340
12E
 90
 33904128
170
     1
 91
-1056964608
341
14
171
    -2
290
     1
291
     1
 41
0.36
 42
2.0
172
     2
343
11
173
     5
 95
        5
174
     1
175
     2
 92
-1056964608
292
     0
 93
-1056964608
 10
1.0
 20
1.0
 30
1.0
 43
0.0
176
     0
293
     0
294
     0
178
     0
179
     1
 45
1.0
271
     0
272
     9
273
     9
295
     0
  0
MULTILEADER
  5
55D
330
1F
100
AcDbEntity
  8
文字
  6
Continuous
160
               716
310
CC020000190000000C00000016000000000000C00C00000033000000000000000C00000013000000993A0000CC0000002600000072C3C1D8546880402D5D4E6C58927B40000000000000000000000000000000000000000000000000000000000000F03F000000000000F03F00000000000000000000000000000000A630EC
310
30BF30F330D530A930FC30E0300000000008000000010000000000000000000840000000000000F03F0000000000000000000000000000F03F0000000000000000000000000000000000000000000000000000000001000000320000002DFF33FF200030FFB430B730C330AF300000000000000000000000000C0000003300
310
0000000000000C00000010000000040000000C00000016000000000000C00C00000012000000000000000C00000013000000010000000C0000001400000001000000540000000700000003000000FDAA9D5A2EA881402FB478B490747A400000000000000000E0478CFA30AD8140C4E620D0B5557A400000000000000000E3
310
539CC872A381408F2ED9C3A56F7A4000000000000000000C00000014000000010000000C00000013000000891300003C000000060000000200000070FF9C91D0A581405FF1283C1B727A4000000000000000000C5D5B726E5D814094C3B4D2BE887B4000000000000000000C00000013000000112700003C00000006000000
310
020000000C5D5B726E5D814094C3B4D2BE887B4000000000000000009148AD2A8D5A814094C3B4D2BE887B4000000000000000000C00000016000000000000C00C00000012000000000000000C00000017000000000000000C000000130000009A3A00003C0000000600000002000000154FF092BD6B804094C3B4D2BE887B
310
4000000000000000009148AD2A8D5A814094C3B4D2BE887B4000000000000000000C00000016000000000000C00C00000012000000000000000C00000017000000FFFFFFFF0C0000003300000000000000
100
AcDbMLeader
270
     2
300
CONTEXT_DATA{
 40
1.0
 10
525.3775654195912
 20
440.5465876637547
 30
0.0
 41
3.0
140
2.0
145
0.09
174
     5
175
     5
176
     2
177
     0
290
     1
304
ウレタンフォーム
 11
0.0
 21
0.0
 31
1.0
340
11
 12
555.2289290559549
 22
444.6238603910274
 32
0.0
 13
1.0
 23
0.0
 33
0.0
 42
0.0
 43
32.90887703216891
 44
0.0
 45
1.0
170
     1
 90
-1073741824
171
     3
172
     5
 91
-1073741824
141
0.0
 92
        0
291
     0
292
     0
173
     0
293
     0
142
0.0
143
0.0
294
     0
295
     0
296
     0
110
563.9820022754711
120
428.9637085178126
130
0.0
111
1.0
121
0.0
131
0.0
112
0.0
122
1.0
132
0.0
297
     0
302
LEADER{
290
     1
291
     1
 10
555.6789290559549
 20
440.5465876637547
 30
0.0
 11
-1.0
 21
0.0
 31
0.0
 90
        0
 40
0.36
304
LEADER_LINE{
 10
565.6489153823313
 20
421.3568879399502
 30
0.0
 91
        0
305
}
271
     0
303
}
272
     9
273
     9
301
}
340
12E
 90
 33904128
170
     1
 91
-1056964608
341
14
171
    -2
290
     1
291
     1
 41
0.36
 42
2.0
172
     2
343
11
173
     5
 95
        5
174
     1
175
     2
 92
-1056964608
292
     0
 93
-1056964608
 10
1.0
 20
1.0
 30
1.0
 43
0.0
176
     0
293
     0
294
     0
178
     0
179
     3
 45
1.0
271
     0
272
     9
273
     9
295
     0
  0
MULTILEADER
  5
55E
330
1F
100
AcDbEntity
  8
文字
  6
Continuous
160
               708
310
C4020000190000000C00000016000000000000C00C00000033000000000000000C00000013000000993A0000C40000002600000021E701352CCD80402EA2A6A63E2F7C40000000000000000000000000000000000000000000000000000000000000F03F000000000000F03F00000000000000000000000000000000B171A8
310
81355F50670000000004000000010000000000000000000840000000000000F03F0000000000000000000000000000F03F0000000000000000000000000000000000000000000000000000000001000000320000002DFF33FF200030FFB430B730C330AF300000000000000000000000000C00000033000000000000000C00
310
000010000000040000000C00000016000000000000C00C00000012000000000000000C00000013000000010000000C00000014000000010000005400000007000000030000007D14F513FAA481402FF9D0EE76117B40000000000000000060B1E3B3FCA98140C42B790A9CF27A40000000000000000063BDF3813EA081408F
310
7331FE8B0C7B4000000000000000000C00000014000000010000000C00000013000000891300003C0000000600000002000000F068F44A9CA281405F368176010F7B4000000000000000008CC6B22B3A5A814094080D0DA5257C4000000000000000000C00000013000000112700003C00000006000000020000008CC6B22B
310
3A5A814094080D0DA5257C40000000000000000011B204E45857814094080D0DA5257C4000000000000000000C00000016000000000000C00C00000012000000000000000C00000017000000000000000C000000130000009A3A00003C000000060000000200000067FE5EA97DCF804094080D0DA5257C4000000000000000
310
0011B204E45857814094080D0DA5257C4000000000000000000C00000016000000000000C00C00000012000000000000000C00000017000000FFFFFFFF0C0000003300000000000000
100
AcDbMLeader
270
     2
300
CONTEXT_DATA{
 40
1.0
 10
537.8463582059275
 20
450.3527956494447
 30
0.0
 41
3.0
140
2.0
145
0.09
174
     5
175
     5
176
     2
177
     0
290
     1
304
熱膨張材
 11
0.0
 21
0.0
 31
1.0
340
11
 12
554.8284036604731
 22
454.4641592858083
 32
0.0
 13
1.0
 23
0.0
 33
0.0
 42
0.0
 43
28.79394255978695
 44
0.0
 45
1.0
170
     1
 90
-1073741824
171
     3
172
     5
 91
-1073741824
141
0.0
 92
        0
291
     0
292
     0
173
     0
293
     0
142
0.0
143
0.0
294
     0
295
     0
296
     0
110
563.5814768799892
120
438.7699165035026
130
0.0
111
1.0
121
0.0
131
0.0
112
0.0
122
1.0
132
0.0
297
     0
302
LEADER{
290
     1
291
     1
 10
555.278403660473
 20
450.3527956494447
 30
0.0
 11
-1.0
 21
0.0
 31
0.0
 90
        0
 40
0.36
304
LEADER_LINE{
 10
565.2483899868493
 20
431.1630959256401
 30
0.0
 91
        0
305
}
271
     0
303
}
272
     9
273
     9
301
}
340
12E
 90
 33904128
170
     1
 91
-1056964608
341
14
171
    -2
290
     1
291
     1
 41
0.36
 42
2.0
172
     2
343
11
173
     5
 95
        5
174
     1
175
     2
 92
-1056964608
292
     0
 93
-1056964608
 10
1.0
 20
1.0
 30
1.0
 43
0.0
176
     0
293
     0
294
     0
178
     0
179
     3
 45
1.0
271
     0
272
     9
273
     9
295
     0
  0
MULTILEADER
  5
55F
330
1F
100
AcDbEntity
  8
文字
  6
Continuous
160
               712
310
C8020000190000000C00000016000000000000C00C00000033000000000000000C00000013000000993A0000C800000026000000961171B00D9980404ED19CA2FEDF7740000000000000000000000000000000000000000000000000000000000000F03F000000000000F03F000000000000000000000000000000008B95E3
310
53AD30E330C330D7300000000006000000010000000000000000000840000000000000F03F0000000000000000000000000000F03F0000000000000000000000000000000000000000000000000000000001000000320000002DFF33FF200030FFB430B730C330AF300000000000000000000000000C000000330000000000
310
00000C00000010000000040000000C00000016000000000000C00C00000012000000000000000C00000013000000010000000C0000001400000001000000540000000700000003000000A96F2B02BE7F81407C2F730D163A7840000000000000000060BDFEB5468C8140A4079FAAAD4E784000000000000000009D05E44EC2
310
83814053D823AF1133784000000000000000000C00000014000000010000000C00000013000000891300003C0000000600000002000000A3BA8728C0818140E8834BDE9336784000000000000000008C1FDC8FBE578140B437030965D6774000000000000000000C00000013000000112700003C0000000600000002000000
310
8C1FDC8FBE578140B437030965D677400000000000000000110B2E48DD548140B437030965D6774000000000000000000C00000016000000000000C00C00000012000000000000000C00000017000000000000000C000000130000009A3A00003C0000000600000002000000AD6EE581539C8040B437030965D67740000000
310
0000000000120B2E48DD548140B437030965D6774000000000000000000C00000016000000000000C00C00000012000000000000000C00000017000000FFFFFFFF0C0000003300000000000000
100
AcDbMLeader
270
     2
300
CONTEXT_DATA{
 40
1.0
 10
531.4507751011276
 20
381.3996667981803
 30
0.0
 41
3.0
140
2.0
145
0.09
174
     5
175
     5
176
     2
177
     0
290
     1
304
{\fMS PGothic|b0|i0|c128|p50;開口キャップ}
 11
0.0
 21
0.0
 31
1.0
340
11
 12
554.5180478284004
 22
385.7155758890894
 32
0.0
 13
1.0
 23
0.0
 33
0.0
 42
0.0
 43
25.5442780519661
 44
0.0
 45
1.0
170
     1
 90
-1073741824
171
     3
172
     5
 91
-1073741824
141
0.0
 92
        0
291
     0
292
     0
173
     0
293
     0
142
0.0
143
0.0
294
     0
295
     0
296
     0
110
563.2711210479165
120
369.8167876522382
130
0.0
111
1.0
121
0.0
131
0.0
112
0.0
122
1.0
132
0.0
297
     0
302
LEADER{
290
     1
291
     1
 10
554.9680478284003
 20
381.3996667981803
 30
0.0
 11
-1.0
 21
0.0
 31
0.0
 90
        0
 40
0.36
304
LEADER_LINE{
 10
561.5345268155615
 20
388.9173990451912
 30
0.0
 91
        0
305
}
271
     0
303
}
272
     9
273
     9
301
}
340
12E
 90
 33904128
170
     1
 91
-1056964608
341
14
171
    -2
290
     1
291
     1
 41
0.36
 42
2.0
172
     2
343
11
173
     5
 95
        5
174
     1
175
     2
 92
-1056964608
292
     0
 93
-1056964608
 10
1.0
 20
1.0
 30
1.0
 43
0.0
176
     0
293
     0
294
     0
178
     0
179
     3
 45
1.0
271
     0
272
     9
273
     9
295
     0
  0
HATCH
  5
560
330
1F
100
AcDbEntity
  8
防火材
  6
Continuous
370
    13
100
AcDbHatch
 10
0.0
 20
0.0
 30
0.0
210
0.0
220
0.0
230
1.0
  2
HONEY
 70
     0
 71
     1
 91
       13
 92
        7
 72
     1
 73
     1
 93
        2
 10
469.3034775127671
 20
412.0736476962852
 42
1.0
 10
504.339948934426
 20
412.0736476962852
 42
1.0
 97
        1
330
56A
 92
       22
 72
     1
 73
     1
 93
        2
 10
499.6793142778106
 20
412.0736476962852
 42
-1.0
 10
473.9641121693826
 20
412.0736476962852
 42
-1.0
 97
        1
330
561
 92
        6
 72
     1
 73
     1
 93
        2
 10
498.7521228802306
 20
412.0736476962852
 42
-1.0
 10
474.8913035669625
 20
412.0736476962852
 42
-1.0
 97
        1
330
562
 92
        6
 72
     1
 73
     1
 93
       18
 10
489.6267957330321
 20
415.1047936640386
 42
-0.2756698901320727
 10
488.0174975554642
 20
412.3694521395545
 42
-0.2400795699283657
 10
490.8275592104214
 20
412.4702341196625
 42
-0.2902949673337294
 10
489.6658480446672
 20
414.3025297647427
 42
-1.0
 10
493.7175265533798
 20
414.3025297647427
 42
-0.5558059045476452
 10
490.8179487326993
 20
412.4498560799836
 42
-0.2902949673337295
 10
492.5938143321242
 20
409.6488923809203
 42
-0.49793079551683
 10
488.660104607025
 20
406.6563940223993
 42
-0.9432132114679896
 10
488.108835237957
 20
404.1230364933569
 42
0.0
 10
484.9802489131214
 20
404.1230364933569
 42
-1.081118488247261
 10
484.7787101634833
 20
406.7043763909366
 42
0.0
 10
488.3103739875951
 20
406.7043763909366
 42
-0.0685873707495228
 10
488.662929927578
 20
406.6664967101242
 42
-0.3364196543469188
 10
486.4001607841006
 20
409.6488923809203
 42
-1.0
 10
480.2065072360772
 20
409.6488923809203
 42
-1.0
 10
486.4001607841007
 20
409.6488923809203
 42
-0.2756698901320727
 10
488.0094589616686
 20
412.3842339054045
 42
-0.5688766834321582
 10
483.4331421850087
 20
415.1047936640386
 42
-1.0
 97
        8
330
575
330
574
330
563
330
57C
330
57A
330
576
330
578
330
565
 92
        6
 72
     1
 73
     1
 93
        2
 10
489.2757462430992
 20
415.1047936640386
 42
-1.0
 10
483.7841916749415
 20
415.1047936640386
 42
-1.0
 97
        1
330
577
 92
        6
 72
     1
 73
     1
 93
        2
 10
493.4567069535705
 20
414.3025297647427
 42
-1.0
 10
489.9266676444764
 20
414.3025297647427
 42
-1.0
 97
        1
330
564
 92
        6
 72
     1
 73
     1
 93
        2
 10
492.2427648421913
 20
409.6488923809203
 42
-1.0
 10
486.7512102740336
 20
409.6488923809203
 42
-1.0
 97
        1
330
573
 92
        6
 72
     1
 73
     1
 93
        2
 10
486.0491112941677
 20
409.6488923809203
 42
-1.0
 10
480.5575567260101
 20
409.6488923809203
 42
-1.0
 97
        1
330
567
 92
        6
 72
     1
 73
     1
 93
        2
 10
488.2075687743338
 20
406.2820073608447
 42
0.0
 10
488.4023832912264
 20
406.2820073608447
 42
0.0554163509083412
 97
        2
330
57B
330
584
 92
        6
 72
     1
 73
     1
 93
       10
 10
488.1450689491455
 20
404.5454055234488
 42
0.0
 10
486.7337126625106
 20
404.5454055234488
 42
-0.1101432762717934
 10
486.3499735337527
 20
404.5454055234488
 42
0.0
 10
484.9705797278622
 20
404.5454055234488
 42
-0.4800364824986937
 10
483.897143696159
 20
405.4058388483356
 42
-0.4160247681854472
 10
484.7787101634833
 20
406.2820073608447
 42
-0.4124267439348059
 10
485.6602766308074
 20
405.4058388483356
 42
-1.0
 10
487.423409565456
 20
405.4058388483356
 42
-0.3513180409063092
 10
486.7337126625106
 20
404.5454055234488
 42
0.0
 10
488.4756790260449
 20
404.5454055234488
 42
-0.0951887962398918
 97
        5
330
57D
330
580
330
57F
330
579
330
57E
 92
        6
 72
     1
 73
     1
 93
        2
 10
488.7641734700125
 20
405.4058388483356
 42
-1.0
 10
487.8457785955477
 20
405.4058388483356
 42
-1.0
 97
        1
330
585
 92
        6
 72
     1
 73
     1
 93
        2
 10
487.0010405353641
 20
405.4058388483356
 42
-1.0
 10
486.0826456608993
 20
405.4058388483356
 42
-1.0
 97
        1
330
582
 92
        6
 72
     1
 73
     1
 93
        2
 10
485.2379076007157
 20
405.4058388483356
 42
-1.0
 10
484.3195127262509
 20
405.4058388483356
 42
-1.0
 97
        1
330
581
 75
     1
 76
     1
 52
0.0
 41
5.0
 77
     0
 78
     3
 53
0.0
 43
193.4371091519915
 44
215.6236590285641
 45
0.9375
 46
0.5412658773652741
 79
     2
 49
0.625
 49
-1.25
 53
120.0
 43
193.4371091519915
 44
215.6236590285641
 45
-0.9374999999999998
 46
0.5412658773652744
 79
     2
 49
0.6249999999999997
 49
-1.249999999999999
 53
60.0
 43
193.4371091519915
 44
215.6236590285641
 45
0.0000000000000002
 46
1.082531754730548
 79
     2
 49
-1.25
 49
0.625
 47
0.1346142614795253
 98
       13
 10
491.735840324718
 20
426.2709382893574
 10
491.735840324718
 20
426.2709382893574
 10
491.735840324718
 20
426.2709382893574
 10
491.735840324718
 20
426.2709382893574
 10
491.735840324718
 20
426.2709382893574
 10
491.735840324718
 20
426.2709382893574
 10
491.735840324718
 20
426.2709382893574
 10
491.735840324718
 20
426.2709382893574
 10
491.735840324718
 20
426.2709382893574
 10
491.735840324718
 20
426.2709382893574
 10
491.735840324718
 20
426.2709382893574
 10
491.735840324718
 20
426.2709382893574
 10
491.735840324718
 20
426.2709382893574
1001
GradientColor1ACI
1070
     5
1001
GradientColor2ACI
1070
     2
1001
ACAD
1010
0.0
1020
0.0
1030
0.0
  0
CIRCLE
  5
561
102
{ACAD_REACTORS
330
560
102
}
330
1F
100
AcDbEntity
  8
防火材
  6
Continuous
370
    13
100
AcDbCircle
 10
486.8217132235965
 20
412.0736476962852
 30
0.0
 40
12.857601054214
  0
CIRCLE
  5
562
102
{ACAD_REACTORS
330
560
102
}
330
1F
100
AcDbEntity
  8
防火材
  6
Continuous
370
    13
100
AcDbCircle
 10
486.8217132235965
 20
412.0736476962852
 30
0.0
 40
11.93040965663408
  0
CIRCLE
  5
563
102
{ACAD_REACTORS
330
560
102
}
330
1F
100
AcDbEntity
  8
防火材
  6
Continuous
370
    13
100
AcDbCircle
 10
491.6916872990235
 20
414.3025297647427
 30
0.0
 40
2.025839254356319
  0
CIRCLE
  5
564
102
{ACAD_REACTORS
330
560
102
}
330
1F
100
AcDbEntity
  8
防火材
  6
Continuous
370
    13
100
AcDbCircle
 10
491.6916872990235
 20
414.3025297647427
 30
0.0
 40
1.765019654547034
  0
CIRCLE
  5
565
102
{ACAD_REACTORS
330
560
102
}
330
1F
100
AcDbEntity
  8
防火材
  6
Continuous
370
    13
100
AcDbCircle
 10
483.3033340100889
 20
409.6488923809203
 30
0.0
 40
3.096826774011754
  0
HATCH
  5
566
330
1F
100
AcDbEntity
  8
防火材
  6
Continuous
370
    13
100
AcDbHatch
 10
0.0
 20
0.0
 30
0.0
210
0.0
220
0.0
230
1.0
  2
HONEY
 70
     0
 71
     1
 91
        3
 92
        7
 72
     1
 73
     1
 93
        2
 10
489.2757462430992
 20
415.1047936640386
 42
1.0
 10
483.7841916749415
 20
415.1047936640386
 42
1.0
 97
        1
330
577
 92
        7
 72
     1
 73
     1
 93
        2
 10
486.0491112941677
 20
409.6488923809203
 42
1.0
 10
480.5575567260101
 20
409.6488923809203
 42
1.0
 97
        1
330
567
 92
        7
 72
     1
 73
     1
 93
        2
 10
486.7512102740336
 20
409.6488923809203
 42
1.0
 10
492.2427648421913
 20
409.6488923809203
 42
1.0
 97
        1
330
573
 75
     1
 76
     1
 52
0.0
 41
2.0
 77
     0
 78
     3
 53
0.0
 43
193.4371091519915
 44
215.6236590285641
 45
0.375
 46
0.2165063509461096
 79
     2
 49
0.25
 49
-0.5
 53
120.0
 43
193.4371091519915
 44
215.6236590285641
 45
-0.3749999999999999
 46
0.2165063509461097
 79
     2
 49
0.2499999999999999
 49
-0.4999999999999999
 53
60.0
 43
193.4371091519915
 44
215.6236590285641
 45
0.0000000000000001
 46
0.4330127018922194
 79
     2
 49
-0.5
 49
0.25
 47
0.0340911336647878
 98
        3
 10
486.6567142154135
 20
414.8145287452355
 10
482.4523416179899
 20
409.2317082063857
 10
488.3597513172698
 20
410.2951027761944
1001
GradientColor1ACI
1070
     5
1001
GradientColor2ACI
1070
     2
1001
ACAD
1010
0.0
1020
0.0
1030
0.0
  0
CIRCLE
  5
567
102
{ACAD_REACTORS
330
560
330
566
102
}
330
1F
100
AcDbEntity
  8
防火材
  6
Continuous
370
    13
100
AcDbCircle
 10
483.3033340100889
 20
409.6488923809203
 30
0.0
 40
2.745777284078814
  0
CIRCLE
  5
568
330
1F
100
AcDbEntity
  8
防火材
  6
HIDDEN
370
    13
100
AcDbCircle
 10
486.8217132235965
 20
412.0736476962852
 30
0.0
 40
20.2757876233611
  0
CIRCLE
  5
569
330
1F
100
AcDbEntity
  8
防火材
  6
Continuous
370
    13
100
AcDbCircle
 10
486.8217132235965
 20
412.0736476962852
 30
0.0
 40
26.53641730687704
  0
CIRCLE
  5
56A
102
{ACAD_REACTORS
330
560
102
}
330
1F
100
AcDbEntity
  8
防火材
  6
Continuous
370
    13
100
AcDbCircle
 10
486.8217132235965
 20
412.0736476962852
 30
0.0
 40
17.51823571082946
  0
MULTILEADER
  5
56B
330
1F
100
AcDbEntity
  8
文字
  6
Continuous
160
               716
310
CC020000190000000C00000016000000000000C00C00000033000000000000000C00000013000000993A0000CC00000026000000E4B273779FBD7B40C59E7CCA00F37B40000000000000000000000000000000000000000000000000000000000000F03F000000000000F03F00000000000000000000000000000000A630EC
310
30BF30F330D530A930FC30E030000009FF08000000010000000000000000000840000000000000F03F0000000000000000000000000000F03F0000000000000000000000000000000000000000000000000000000001000000320000002DFF33FF200030FFB430B730C330AF300000530000004F0000005C000C0000003300
310
0000000000000C00000010000000040000000C00000016000000000000C00C00000012000000000000000C00000013000000010000000C0000001400000001000000540000000700000003000000C5A4288DA33C7E4032EDFE1AFEE47A400000000000000000C0BB08BB57477E405C284F2E5EC67A40000000000000000071
310
A4AFFD48337E407B65759EDDDF7A4000000000000000000C00000014000000010000000C00000013000000891300003C00000006000000020000009B246C45F6377E405729BADC6DE27A40000000000000000018E6A6AAD2A77D402C05E33067E97B4000000000000000000C00000013000000112700003C00000006000000
310
0200000018E6A6AAD2A77D402C05E33067E97B40000000000000000022BD4A1B10A27D402C05E33067E97B4000000000000000000C00000016000000000000C00C00000012000000000000000C00000017000000000000000C000000130000009A3A00003C00000006000000020000002ACAD0EB70C47B402C05E33067E97B
310
40000000000000000022BD4A1B10A27D402C05E33067E97B4000000000000000000C00000016000000000000C00C00000012000000000000000C00000017000000FFFFFFFF0C0000003300000000000000
100
AcDbMLeader
270
     2
300
CONTEXT_DATA{
 40
1.0
 10
444.1875686412666
 20
446.5876931064583
 30
0.0
 41
3.0
140
2.0
145
0.09
174
     5
175
     5
176
     2
177
     0
290
     1
304
ウレタンフォーム
 11
0.0
 21
0.0
 31
1.0
340
11
 12
474.0389322776302
 22
450.664965833731
 32
0.0
 13
1.0
 23
0.0
 33
0.0
 42
0.0
 43
33.56691802703631
 44
0.0
 45
1.0
170
     1
 90
-1073741824
171
     3
172
     5
 91
-1073741824
141
0.0
 92
        0
291
     0
292
     0
173
     0
293
     0
142
0.0
143
0.0
294
     0
295
     0
296
     0
110
482.7920054971464
120
435.0048139605162
130
0.0
111
1.0
121
0.0
131
0.0
112
0.0
122
1.0
132
0.0
297
     0
302
LEADER{
290
     1
291
     1
 10
474.4889322776303
 20
446.5876931064583
 30
0.0
 11
-1.0
 21
0.0
 31
0.0
 90
        0
 40
0.36
304
LEADER_LINE{
 10
484.4589186040066
 20
428.3979933826538
 30
0.0
 91
        0
305
}
271
     0
303
}
272
     9
273
     9
301
}
340
12E
 90
 33904128
170
     1
 91
-1056964608
341
14
171
    -2
290
     1
291
     1
 41
0.36
 42
2.0
172
     2
343
11
173
     5
 95
        5
174
     1
175
     2
 92
-1056964608
292
     0
 93
-1056964608
 10
1.0
 20
1.0
 30
1.0
 43
0.0
176
     0
293
     0
294
     0
178
     0
179
     3
 45
1.0
271
     0
272
     9
273
     9
295
     0
  0
LINE
  5
56C
330
1F
100
AcDbEntity
  8
防火材
  6
Continuous
370
    13
100
AcDbLine
 10
486.8217132235965
 20
394.5554119854557
 30
0.0
 11
486.8217132235965
 21
385.5372303894083
 31
0.0
  0
MTEXT
  5
56D
330
1F
100
AcDbEntity
  8
文字
  6
Continuous
100
AcDbMText
 10
450.38120521924
 20
508.1046461078797
 30
0.0
 40
3.0
 41
4.178825393072102
 46
0.0
 71
     1
 72
     5
  1
１
 73
     1
 44
0.75
101
Embedded Object
 70
     1
 10
1.0
 20
0.0
 30
0.0
 11
450.38120521924
 21
508.1046461078797
 31
0.0
 40
4.178825393072102
 41
0.0
 42
1.244318181818181
 43
3.0
 71
     2
 72
     1
 44
4.178825393072102
 45
0.8849620939533352
 73
     0
 74
     0
 46
4.724757535192768
  0
MTEXT
  5
56E
330
1F
100
AcDbEntity
  8
文字
  6
Continuous
100
AcDbMText
 10
626.3181649083142
 20
498.3062351384317
 30
0.0
 40
3.0
 41
21.16849155225112
 46
0.0
 71
     1
 72
     5
  1
単位：ｍｍ
 73
     1
 44
0.75
101
Embedded Object
 70
     1
 10
1.0
 20
0.0
 30
0.0
 11
626.3181649083142
 21
498.3062351384317
 31
0.0
 40
21.16849155225112
 41
0.0
 42
18.51136363636364
 43
3.886363636363636
 71
     2
 72
     1
 44
21.16849155225112
 45
0.8849620939533352
 73
     0
 74
     0
 46
10.53238702043993
  0
MTEXT
  5
56F
330
1F
100
AcDbEntity
  8
文字
  6
Continuous
100
AcDbMText
 10
478.6947306781009
 20
377.9095253854025
 30
0.0
 40
3.0
 41
30.05778784164626
 46
0.0
 71
     1
 72
     5
  1
{\fMS PGothic|b0|i0|c128|p50;正面図}
 73
     1
 44
0.75
101
Embedded Object
 70
     1
 10
1.0
 20
0.0
 30
0.0
 11
478.6947306781009
 21
377.9095253854025
 31
0.0
 40
30.05778784164626
 41
0.0
 42
12.32386363636363
 43
3.664772727272727
 71
     2
 72
     1
 44
30.05778784164626
 45
0.8849620939533352
 73
     0
 74
     0
 46
5.349968647182979
  0
MTEXT
  5
572
330
1F
100
AcDbEntity
  8
文字
  6
Continuous
100
AcDbMText
 10
466.1628722503953
 20
508.1942852337763
 30
0.0
 40
3.0
 41
101.0749258368845
 46
0.0
 71
     1
 72
     5
  1
【電気設備】丸穴工法　共住区画中空間仕切壁
 73
     1
 44
0.75
101
Embedded Object
 70
     1
 10
1.0
 20
0.0
 30
0.0
 11
466.1628722503953
 21
508.1942852337763
 31
0.0
 40
101.0749258368845
 41
0.0
 42
85.05681818181818
 43
4.142045454545454
 71
     2
 72
     1
 44
101.0749258368845
 45
0.8849620939533352
 73
     0
 74
     0
 46
10.53238702043993
  0
CIRCLE
  5
573
102
{ACAD_REACTORS
330
560
330
566
102
}
330
1F
100
AcDbEntity
  8
防火材
  6
Continuous
370
    13
100
AcDbCircle
 10
489.4969875581124
 20
409.6488923809203
 30
0.0
 40
2.745777284078814
  0
CIRCLE
  5
574
102
{ACAD_REACTORS
330
560
102
}
330
1F
100
AcDbEntity
  8
防火材
  6
Continuous
370
    13
100
AcDbCircle
 10
489.4969875581124
 20
409.6488923809203
 30
0.0
 40
3.096826774011754
  0
CIRCLE
  5
575
102
{ACAD_REACTORS
330
560
102
}
330
1F
100
AcDbEntity
  8
防火材
  6
Continuous
370
    13
100
AcDbCircle
 10
486.5299689590204
 20
415.1047936640386
 30
0.0
 40
3.096826774011754
  0
ARC
  5
576
102
{ACAD_REACTORS
330
560
102
}
330
1F
100
AcDbEntity
  8
防火材
  6
Continuous
370
    13
100
AcDbCircle
 10
484.7787101634833
 20
405.4058388483356
 30
0.0
 40
1.298537542601054
100
AcDbArc
 50
90.0
 51
278.9286513936213
  0
CIRCLE
  5
577
102
{ACAD_REACTORS
330
560
330
566
102
}
330
1F
100
AcDbEntity
  8
防火材
  6
Continuous
370
    13
100
AcDbCircle
 10
486.5299689590204
 20
415.1047936640386
 30
0.0
 40
2.745777284078814
  0
LINE
  5
578
102
{ACAD_REACTORS
330
560
102
}
330
1F
100
AcDbEntity
  8
防火材
  6
Continuous
370
    13
100
AcDbLine
 10
484.7787101634833
 20
406.7043763909366
 30
0.0
 11
488.3103739875951
 21
406.7043763909366
 31
0.0
  0
ARC
  5
579
102
{ACAD_REACTORS
330
560
102
}
330
1F
100
AcDbEntity
  8
防火材
  6
Continuous
370
    13
100
AcDbCircle
 10
484.7787101634833
 20
405.4058388483356
 30
0.0
 40
0.8761685125091535
100
AcDbArc
 50
90.0
 51
278.9286513936213
  0
LINE
  5
57A
102
{ACAD_REACTORS
330
560
102
}
330
1F
100
AcDbEntity
  8
防火材
  6
Continuous
370
    13
100
AcDbLine
 10
484.5771714138455
 20
404.1230364933569
 30
0.0
 11
488.5119127372331
 21
404.1230364933569
 31
0.0
  0
LINE
  5
57B
102
{ACAD_REACTORS
330
560
102
}
330
1F
100
AcDbEntity
  8
防火材
  6
Continuous
370
    13
100
AcDbLine
 10
484.7787101634833
 20
406.2820073608447
 30
0.0
 11
488.4023832912268
 21
406.2820073608447
 31
0.0
  0
ARC
  5
57C
102
{ACAD_REACTORS
330
560
102
}
330
1F
100
AcDbEntity
  8
防火材
  6
Continuous
370
    13
100
AcDbCircle
 10
488.3103739875951
 20
405.4058388483356
 30
0.0
 40
1.298537542601054
100
AcDbArc
 50
261.0713486063755
 51
90.0
  0
LINE
  5
57D
102
{ACAD_REACTORS
330
560
102
}
330
1F
100
AcDbEntity
  8
防火材
  6
Continuous
370
    13
100
AcDbLine
 10
484.5771714138455
 20
404.5454055234488
 30
0.0
 11
488.4968455971589
 21
404.5454055234488
 31
0.0
  0
ARC
  5
57E
102
{ACAD_REACTORS
330
560
102
}
330
1F
100
AcDbEntity
  8
防火材
  6
Continuous
370
    13
100
AcDbCircle
 10
488.3103739875951
 20
405.4058388483356
 30
0.0
 40
0.8761685125091535
100
AcDbArc
 50
261.0713486063755
 51
90.0
  0
CIRCLE
  5
57F
102
{ACAD_REACTORS
330
560
102
}
330
1F
100
AcDbEntity
  8
防火材
  6
Continuous
370
    13
100
AcDbCircle
 10
484.7787101634833
 20
405.4058388483356
 30
0.0
 40
0.8815664673242764
  0
CIRCLE
  5
580
102
{ACAD_REACTORS
330
560
102
}
330
1F
100
AcDbEntity
  8
防火材
  6
Continuous
370
    13
100
AcDbCircle
 10
486.5418430981317
 20
405.4058388483356
 30
0.0
 40
0.8815664673242764
  0
CIRCLE
  5
581
102
{ACAD_REACTORS
330
560
102
}
330
1F
100
AcDbEntity
  8
防火材
  6
Continuous
370
    13
100
AcDbCircle
 10
484.7787101634833
 20
405.4058388483356
 30
0.0
 40
0.4591974372323758
  0
CIRCLE
  5
582
102
{ACAD_REACTORS
330
560
102
}
330
1F
100
AcDbEntity
  8
防火材
  6
Continuous
370
    13
100
AcDbCircle
 10
486.5418430981317
 20
405.4058388483356
 30
0.0
 40
0.4591974372323758
  0
LINE
  5
583
330
1F
100
AcDbEntity
  8
図面枠
  6
Continuous
100
AcDbLine
 10
642.3088233039197
 20
320.0523639341537
 30
0.0
 11
642.3088233039199
 21
245.7155480420715
 31
0.0
  0
CIRCLE
  5
584
102
{ACAD_REACTORS
330
560
102
}
330
1F
100
AcDbEntity
  8
防火材
  6
Continuous
370
    13
100
AcDbCircle
 10
488.3049760327801
 20
405.4058388483356
 30
0.0
 40
0.8815664673242764
  0
CIRCLE
  5
585
102
{ACAD_REACTORS
330
560
102
}
330
1F
100
AcDbEntity
  8
防火材
  6
Continuous
370
    13
100
AcDbCircle
 10
488.3049760327801
 20
405.4058388483356
 30
0.0
 40
0.4591974372323758
  0
LINE
  5
586
330
1F
100
AcDbEntity
  8
防火材
  6
Continuous
370
    13
100
AcDbLine
 10
532.8303676887253
 20
424.9312487504992
 30
0.0
 11
533.2359615261521
 21
424.9312487504992
 31
0.0
  0
LINE
  5
587
330
1F
100
AcDbEntity
  8
防火材
  6
Continuous
370
    13
100
AcDbLine
 10
534.3123236546571
 20
424.9312487504992
 30
0.0
 11
535.3886857831621
 21
424.9312487504992
 31
0.0
  0
LINE
  5
588
330
1F
100
AcDbEntity
  8
防火材
  6
Continuous
370
    13
100
AcDbLine
 10
536.4650479116671
 20
424.9312487504992
 30
0.0
 11
537.5414100401721
 21
424.9312487504992
 31
0.0
  0
LINE
  5
589
330
1F
100
AcDbEntity
  8
防火材
  6
Continuous
370
    13
100
AcDbLine
 10
538.6177721686772
 20
424.9312487504992
 30
0.0
 11
539.6941342971822
 21
424.9312487504991
 31
0.0
  0
LINE
  5
58A
330
1F
100
AcDbEntity
  8
防火材
  6
Continuous
370
    13
100
AcDbLine
 10
540.7704964256872
 20
424.9312487504991
 30
0.0
 11
541.8468585541923
 21
424.9312487504991
 31
0.0
  0
LINE
  5
58B
330
1F
100
AcDbEntity
  8
防火材
  6
Continuous
370
    13
100
AcDbLine
 10
542.9232206826973
 20
424.9312487504991
 30
0.0
 11
543.9995828112023
 21
424.9312487504992
 31
0.0
  0
LINE
  5
58C
330
1F
100
AcDbEntity
  8
防火材
  6
Continuous
370
    13
100
AcDbLine
 10
545.0759449397073
 20
424.9312487504992
 30
0.0
 11
546.1523070682123
 21
424.9312487504992
 31
0.0
  0
LINE
  5
58D
330
1F
100
AcDbEntity
  8
防火材
  6
Continuous
370
    13
100
AcDbLine
 10
547.2286691967174
 20
424.9312487504992
 30
0.0
 11
548.3050313252224
 21
424.9312487504992
 31
0.0
  0
LINE
  5
58E
330
1F
100
AcDbEntity
  8
防火材
  6
Continuous
370
    13
100
AcDbLine
 10
549.3813934537274
 20
424.9312487504992
 30
0.0
 11
550.4577555822325
 21
424.9312487504992
 31
0.0
  0
LINE
  5
58F
330
1F
100
AcDbEntity
  8
防火材
  6
Continuous
370
    13
100
AcDbLine
 10
551.5341177107375
 20
424.9312487504992
 30
0.0
 11
552.6104798392425
 21
424.9312487504992
 31
0.0
  0
LINE
  5
590
330
1F
100
AcDbEntity
  8
防火材
  6
Continuous
370
    13
100
AcDbLine
 10
553.6868419677476
 20
424.9312487504992
 30
0.0
 11
554.7632040962525
 21
424.9312487504992
 31
0.0
  0
LINE
  5
591
330
1F
100
AcDbEntity
  8
防火材
  6
Continuous
370
    13
100
AcDbLine
 10
555.8395662247575
 20
424.9312487504992
 30
0.0
 11
556.9159283532626
 21
424.9312487504992
 31
0.0
  0
LINE
  5
592
330
1F
100
AcDbEntity
  8
防火材
  6
Continuous
370
    13
100
AcDbLine
 10
557.9922904817676
 20
424.9312487504992
 30
0.0
 11
559.0686526102727
 21
424.9312487504992
 31
0.0
  0
LINE
  5
593
330
1F
100
AcDbEntity
  8
防火材
  6
Continuous
370
    13
100
AcDbLine
 10
560.1450147387777
 20
424.9312487504992
 30
0.0
 11
561.2213768672827
 21
424.9312487504992
 31
0.0
  0
LINE
  5
594
330
1F
100
AcDbEntity
  8
防火材
  6
Continuous
370
    13
100
AcDbLine
 10
532.1210999871798
 20
399.2160466420712
 30
0.0
 11
533.2359615261521
 21
399.2160466420712
 31
0.0
  0
LINE
  5
595
330
1F
100
AcDbEntity
  8
防火材
  6
Continuous
370
    13
100
AcDbLine
 10
526.1814325942841
 20
418.2016204380504
 30
0.0
 11
534.4946935663594
 21
418.2016204380504
 31
0.0
  0
LINE
  5
596
330
1F
100
AcDbEntity
  8
防火材
  6
Continuous
370
    13
100
AcDbLine
 10
523.6042428854394
 20
406.5520656069085
 30
0.0
 11
531.3105624903324
 21
406.5520656069085
 31
0.0
  0
LINE
  5
597
330
1F
100
AcDbEntity
  8
防火材
  6
Continuous
370
    13
100
AcDbLine
 10
525.9147043782333
 20
416.3283690190991
 30
0.0
 11
534.3181869871914
 21
416.3283690190991
 31
0.0
  0
LINE
  5
598
330
1F
100
AcDbEntity
  8
防火材
  6
Continuous
370
    13
100
AcDbLine
 10
523.6042428853806
 20
412.2766905103864
 30
0.0
 11
532.9410016139306
 21
412.2766905103864
 31
0.0
  0
LINE
  5
599
330
1F
100
AcDbEntity
  8
防火材
  6
Continuous
370
    13
100
AcDbLine
 10
526.1814325943161
 20
416.3283690190991
 30
0.0
 11
534.3181869871915
 21
416.3283690190994
 31
0.0
  0
ARC
  5
59A
330
1F
100
AcDbEntity
  8
防火材
  6
Continuous
370
    13
100
AcDbCircle
 10
526.6670296493457
 20
413.2457668144358
 30
0.0
 40
1.083934215202787
100
AcDbArc
 50
116.6151146439675
 51
243.3848853560325
  0
ARC
  5
59B
330
1F
100
AcDbEntity
  8
防火材
  6
Continuous
370
    13
100
AcDbCircle
 10
526.891800957153
 20
415.2716060688015
 30
0.0
 40
1.273330728454764
100
AcDbArc
 50
123.9094538779299
 51
236.0905461240609
  0
ARC
  5
59C
330
1F
100
AcDbEntity
  8
防火材
  6
Continuous
370
    13
100
AcDbCircle
 10
525.4831997978427
 20
415.2716060687777
 30
0.0
 40
1.266600557091795
100
AcDbArc
 50
303.45385364038
 51
56.54614635961992
  0
ARC
  5
59D
330
1F
100
AcDbEntity
  8
防火材
  6
Continuous
370
    13
100
AcDbCircle
 10
524.4810743044594
 20
407.9638861721926
 30
0.0
 40
1.66194784693741
100
AcDbArc
 50
121.8429417089408
 51
238.1570582910629
  0
ARC
  5
59E
330
1F
100
AcDbEntity
  8
防火材
  6
Continuous
370
    13
100
AcDbCircle
 10
525.0536982238643
 20
410.8261986239608
 30
0.0
 40
2.050572478808087
100
AcDbArc
 50
134.9795203782183
 51
225.0204796232313
  0
ARC
  5
59F
330
1F
100
AcDbEntity
  8
防火材
  6
Continuous
370
    13
100
AcDbCircle
 10
522.1739521133606
 20
410.8261986239309
 30
0.0
 40
2.037071035910225
100
AcDbArc
 50
314.5982273702204
 51
45.4017726297807
  0
ARC
  5
5A0
330
1F
100
AcDbEntity
  8
防火材
  6
Continuous
370
    13
100
AcDbCircle
 10
526.8895615818974
 20
404.7295915231202
 30
0.0
 40
0.9323924426608211
100
AcDbArc
 50
139.4179592863028
 51
220.5820407136972
  0
ARC
  5
5A1
330
1F
100
AcDbEntity
  8
防火材
  6
Continuous
370
    13
100
AcDbCircle
 10
527.5143620683186
 20
405.9441060799332
 30
0.0
 40
1.465030978885537
100
AcDbArc
 50
155.4819012519953
 51
204.5180987514646
  0
ARC
  5
5A2
330
1F
100
AcDbEntity
  8
防火材
  6
Continuous
370
    13
100
AcDbCircle
 10
525.8930708523144
 20
405.9441060798814
 30
0.0
 40
0.672879841231784
100
AcDbArc
 50
295.3754885129129
 51
64.62451148708706
  0
LINE
  5
5A3
330
1F
100
AcDbEntity
  8
防火材
  6
Continuous
370
    13
100
AcDbLine
 10
526.1814325943536
 20
404.1230364933569
 30
0.0
 11
531.2288584939169
 21
404.1230364933569
 31
0.0
  0
ARC
  5
5A4
330
1F
100
AcDbEntity
  8
防火材
  6
Continuous
370
    13
100
AcDbCircle
 10
526.891800957153
 20
417.144857487781
 30
0.0
 40
1.273330728454764
100
AcDbArc
 50
123.9094538779299
 51
219.8830478902187
  0
ARC
  5
5A5
330
1F
100
AcDbEntity
  8
防火材
  6
Continuous
370
    13
100
AcDbCircle
 10
525.4831997978427
 20
417.1448574877572
 30
0.0
 40
1.266600557091795
100
AcDbArc
 50
319.8620748940479
 51
56.54614635961992
  0
LINE
  5
5A6
330
1F
100
AcDbEntity
  8
図面枠
  6
Continuous
100
AcDbLine
 10
451.0399374305817
 20
320.0523639341537
 30
0.0
 11
642.3088233039199
 21
320.0523639341537
 31
0.0
  0
LINE
  5
5A7
330
1F
100
AcDbEntity
  8
図面枠
  6
Continuous
100
AcDbLine
 10
451.0399374305817
 20
320.0523639341537
 30
0.0
 11
451.0399374305817
 21
245.7155480420715
 31
0.0
  0
LINE
  5
5A8
330
1F
100
AcDbEntity
  8
図面枠
  6
Continuous
100
AcDbLine
 10
642.3088233039199
 20
314.7425913704336
 30
0.0
 11
451.0399374305817
 21
314.7425913704336
 31
0.0
  0
LINE
  5
5A9
330
1F
100
AcDbEntity
  8
図面枠
  6
Continuous
100
AcDbLine
 10
642.3088233039199
 20
304.1230462429934
 30
0.0
 11
451.0399374305817
 21
304.1230462429934
 31
0.0
  0
LINE
  5
5AA
330
1F
100
AcDbEntity
  8
図面枠
  6
Continuous
100
AcDbLine
 10
642.3088233039199
 20
298.8132736792733
 30
0.0
 11
451.0399374305817
 21
298.8132736792733
 31
0.0
  0
LINE
  5
5AB
330
1F
100
AcDbEntity
  8
図面枠
  6
Continuous
100
AcDbLine
 10
642.3088233039197
 20
272.2644108606727
 30
0.0
 11
499.6911313480259
 21
272.2644108606729
 31
0.0
  0
LINE
  5
5AC
330
1F
100
AcDbEntity
  8
図面枠
  6
Continuous
100
AcDbLine
 10
642.3088233039197
 20
266.954638296952
 30
0.0
 11
451.0399374305816
 21
266.954638296952
 31
0.0
  0
LINE
  5
5AD
330
1F
100
AcDbEntity
  8
図面枠
  6
Continuous
100
AcDbLine
 10
642.3088233039197
 20
245.7155480420715
 30
0.0
 11
451.0399374305816
 21
245.7155480420715
 31
0.0
  0
MTEXT
  5
5AE
330
1F
100
AcDbEntity
  8
文字
  6
Continuous
100
AcDbMText
 10
456.2058252465826
 20
313.1464996478638
 30
0.0
 40
2.0
 41
65.14525672343133
 46
0.0
 71
     1
 72
     5
  1
（一財）日本消防設備安全センター
 73
     1
 44
0.75
101
Embedded Object
 70
     1
 10
1.0
 20
0.0
 30
0.0
 11
456.2058252465826
 21
313.1464996478638
 31
0.0
 40
65.14525672343133
 41
0.0
 42
41.54545454545455
 43
2.647727272727272
 71
     2
 72
     1
 44
65.14525672343133
 45
0.8849620939533352
 73
     0
 74
     0
 46
3.808148155918591
  0
MTEXT
  5
5AF
330
1F
100
AcDbEntity
  8
文字
  6
Continuous
100
AcDbMText
 10
456.2058252465826
 20
302.5269545204236
 30
0.0
 40
2.0
 41
30.73155332927162
 46
0.0
 71
     1
 72
     5
  1
開口部
 73
     1
 44
0.75
101
Embedded Object
 70
     1
 10
1.0
 20
0.0
 30
0.0
 11
456.2058252465826
 21
302.5269545204236
 31
0.0
 40
30.73155332927162
 41
0.0
 42
8.284090909090908
 43
2.613636363636363
 71
     2
 72
     1
 44
30.73155332927162
 45
0.8849620939533352
 73
     0
 74
     0
 46
2.580461047574065
  0
MTEXT
  5
5B0
330
1F
100
AcDbEntity
  8
文字
  6
Continuous
100
AcDbMText
 10
456.2058252465826
 20
297.2171819567035
 30
0.0
 40
2.0
 41
30.73155332927162
 46
0.0
 71
     1
 72
     5
  1
貫通物
 73
     1
 44
0.75
101
Embedded Object
 70
     1
 10
1.0
 20
0.0
 30
0.0
 11
456.2058252465826
 21
297.2171819567035
 31
0.0
 40
30.73155332927162
 41
0.0
 42
8.295454545454544
 43
2.636363636363636
 71
     2
 72
     1
 44
30.73155332927162
 45
0.8849620939533352
 73
     0
 74
     0
 46
2.580461047574065
  0
LINE
  5
5B1
330
1F
100
AcDbEntity
  8
図面枠
  6
Continuous
100
AcDbLine
 10
483.6936999405553
 20
304.1230462429934
 30
0.0
 11
483.6936999405553
 21
298.8132736792733
 31
0.0
  0
MTEXT
  5
5B2
330
1F
100
AcDbEntity
  8
文字
  6
Continuous
100
AcDbMText
 10
488.8595877565562
 20
302.5269545204236
 30
0.0
 40
2.0
 41
30.73155332927162
 46
0.0
 71
     1
 72
     5
  1
形状（開口サイズ）
 73
     1
 44
0.75
101
Embedded Object
 70
     1
 10
1.0
 20
0.0
 30
0.0
 11
488.8595877565562
 21
302.5269545204236
 31
0.0
 40
30.73155332927162
 41
0.0
 42
21.92045454545455
 43
2.71590909090909
 71
     2
 72
     1
 44
30.73155332927162
 45
0.8849620939533352
 73
     0
 74
     0
 46
2.580461047574065
  0
LINE
  5
5B3
330
1F
100
AcDbEntity
  8
図面枠
  6
Continuous
100
AcDbLine
 10
483.6936999405553
 20
304.1230462429934
 30
0.0
 11
483.6936999405554
 21
266.954638296952
 31
0.0
  0
MTEXT
  5
5B5
330
1F
100
AcDbEntity
  8
文字
  6
Continuous
100
AcDbMText
 10
456.2058252465825
 20
265.358546574382
 30
0.0
 40
2.0
 41
30.73155332927162
 46
0.0
 71
     1
 72
     5
  1
施工方法
 73
     1
 44
0.75
101
Embedded Object
 70
     1
 10
1.0
 20
0.0
 30
0.0
 11
456.2058252465825
 21
265.358546574382
 31
0.0
 40
30.73155332927162
 41
0.0
 42
11.31818181818182
 43
2.636363636363636
 71
     2
 72
     1
 44
30.73155332927162
 45
0.8849620939533352
 73
     0
 74
     0
 46
2.580461047574065
  0
LINE
  5
5B6
330
1F
100
AcDbEntity
  8
図面枠
  6
Continuous
100
AcDbLine
 10
572.9523536795786
 20
320.0523639341537
 30
0.0
 11
572.9523536795786
 21
245.7155480420715
 31
0.0
  0
LINE
  5
5B7
330
1F
100
AcDbEntity
  8
図面枠
  6
Continuous
100
AcDbLine
 10
572.9523536795787
 20
320.0523639341537
 30
0.0
 11
451.0399374305817
 21
320.0523639341537
 31
0.0
  0
MTEXT
  5
5B8
330
1F
100
AcDbEntity
  8
文字
  6
Continuous
100
AcDbMText
 10
507.9290006603801
 20
318.4146704155816
 30
0.0
 40
2.0
 41
30.73155332927162
 46
0.0
 71
     1
 72
     5
  1
項目
 73
     1
 44
0.75
101
Embedded Object
 70
     1
 10
1.0
 20
0.0
 30
0.0
 11
507.9290006603801
 21
318.4146704155816
 31
0.0
 40
30.73155332927162
 41
0.0
 42
5.056818181818181
 43
2.522727272727272
 71
     2
 72
     1
 44
30.73155332927162
 45
0.8849620939533352
 73
     0
 74
     0
 46
2.580461047574065
  0
MTEXT
  5
5B9
330
1F
100
AcDbEntity
  8
文字
  6
Continuous
100
AcDbMText
 10
578.1182414955797
 20
313.1464996478638
 30
0.0
 40
2.0
 41
30.73155332927162
 46
0.0
 71
     1
 72
     5
  1
{\fMS PGothic|b0|i0|c128|p50;ＫＫ２８－００５号}
 73
     1
 44
0.75
101
Embedded Object
 70
     1
 10
1.0
 20
0.0
 30
0.0
 11
578.1182414955797
 21
313.1464996478638
 31
0.0
 40
30.73155332927162
 41
0.0
 42
19.77272727272727
 43
2.522727272727272
 71
     2
 72
     1
 44
30.73155332927162
 45
0.8849620939533352
 73
     0
 74
     0
 46
2.580461047574065
  0
MTEXT
  5
5BA
330
1F
100
AcDbEntity
  8
文字
  6
Continuous
100
AcDbMText
 10
578.1182414955797
 20
302.5269545204236
 30
0.0
 40
2.0
 41
30.73155332927162
 46
0.0
 71
     1
 72
     5
  1
{\fMS PGothic|b0|i0|c128|p50;円形（Φ１１０以下）}
 73
     1
 44
0.75
101
Embedded Object
 70
     1
 10
1.0
 20
0.0
 30
0.0
 11
578.1182414955797
 21
302.5269545204236
 31
0.0
 40
30.73155332927162
 41
0.0
 42
22.54545454545455
 43
2.5
 71
     2
 72
     1
 44
30.73155332927162
 45
0.8849620939533352
 73
     0
 74
     0
 46
2.580461047574065
  0
MTEXT
  5
5BB
330
1F
100
AcDbEntity
  8
文字
  6
Continuous
100
AcDbMText
 10
578.1182414955794
 20
265.3585465743822
 30
0.0
 40
2.0
 41
63.60708728627504
 46
0.0
 71
     1
 72
     5
  1
{\fMS PGothic|b0|i0|c128|p50;１　開口に開口補強枠を設置する。\P２　開口サイズに適した本工法の品番を選定する。\P３　開口キャップを貫通物を挟んで開口に挿入し\P　　施工完了。}
 73
     1
 44
1.05
101
Embedded Object
 70
     1
 10
1.0
 20
0.0
 30
0.0
 11
578.1182414955794
 21
265.3585465743822
 31
0.0
 40
63.60708728627504
 41
0.0
 42
60.31818181818182
 43
14.50909090909091
 71
     2
 72
     1
 44
63.60708728627504
 45
0.8849620939533352
 73
     0
 74
     0
 46
17.50216986766483
  0
MTEXT
  5
5BC
330
1F
100
AcDbEntity
  8
文字
  6
Continuous
100
AcDbMText
 10
606.5551579557173
 20
318.4146704155816
 30
0.0
 40
2.0
 41
30.73155332927162
 46
0.0
 71
     1
 72
     5
  1
仕様
 73
     1
 44
0.75
101
Embedded Object
 70
     1
 10
1.0
 20
0.0
 30
0.0
 11
606.5551579557173
 21
318.4146704155816
 31
0.0
 40
30.73155332927162
 41
0.0
 42
5.556818181818181
 43
2.625
 71
     2
 72
     1
 44
30.73155332927162
 45
0.8849620939533352
 73
     0
 74
     0
 46
2.580461047574065
  0
LINE
  5
5BD
330
1F
100
AcDbEntity
  8
図面枠
  6
Continuous
100
AcDbLine
 10
642.3088233039197
 20
293.5035011155532
 30
0.0
 11
534.0513485720193
 21
293.5035011155532
 31
0.0
  0
MTEXT
  5
5BE
330
1F
100
AcDbEntity
  8
文字
  6
Continuous
100
AcDbMText
 10
537.6482181225449
 20
291.9074093929834
 30
0.0
 40
2.0
 41
60.7835669328564
 46
0.0
 71
     1
 72
     5
  1
{\fMS PGothic|b0|i0|c128|p50;ＶＶＦ ２}×{\fMS PGothic|b0|i0|c128|p50;３Ｃ以下}
 73
     1
 44
0.75
101
Embedded Object
 70
     1
 10
1.0
 20
0.0
 30
0.0
 11
537.6482181225449
 21
291.9074093929834
 31
0.0
 40
60.7835669328564
 41
0.0
 42
20.19983256852288
 43
2.352272727272727
 71
     2
 72
     1
 44
60.7835669328564
 45
0.8849620939533352
 73
     0
 74
     0
 46
2.569124224878326
  0
LINE
  5
5BF
330
1F
100
AcDbEntity
  8
図面枠
  6
Continuous
100
AcDbLine
 10
642.3088233039197
 20
288.1937285518335
 30
0.0
 11
499.6911313480259
 21
288.1937285518333
 31
0.0
  0
LINE
  5
5C0
330
1F
100
AcDbEntity
  8
図面枠
  6
Continuous
100
AcDbLine
 10
642.3088233039197
 20
282.8839559881136
 30
0.0
 11
483.6936999405554
 21
282.8839559881132
 31
0.0
  0
MTEXT
  5
5C1
330
1F
100
AcDbEntity
  8
文字
  6
Continuous
100
AcDbMText
 10
537.6482181225449
 20
286.5976368292637
 30
0.0
 40
2.0
 41
39.61361875815363
 46
0.0
 71
     1
 72
     5
  1
外径９以下
 73
     1
 44
0.75
101
Embedded Object
 70
     1
 10
1.0
 20
0.0
 30
0.0
 11
537.6482181225449
 21
286.5976368292637
 31
0.0
 40
39.61361875815363
 41
0.0
 42
13.22727272727272
 43
2.590909090909091
 71
     2
 72
     1
 44
39.61361875815363
 45
0.8849620939533352
 73
     0
 74
     0
 46
2.035388305534273
  0
MTEXT
  5
5C2
330
1F
100
AcDbEntity
  8
文字
  6
Continuous
100
AcDbMText
 10
577.7319931295457
 20
286.5976368292637
 30
0.0
 40
2.0
 41
30.73155332927162
 46
0.0
 71
     1
 72
     5
  1
１本以下
 73
     1
 44
0.75
101
Embedded Object
 70
     1
 10
1.0
 20
0.0
 30
0.0
 11
577.7319931295457
 21
286.5976368292637
 31
0.0
 40
30.73155332927162
 41
0.0
 42
10.05681818181818
 43
2.579545454545454
 71
     2
 72
     1
 44
30.73155332927162
 45
0.8849620939533352
 73
     0
 74
     0
 46
2.580461047574065
  0
LINE
  5
5C3
330
1F
100
AcDbEntity
  8
図面枠
  6
Continuous
100
AcDbLine
 10
642.3088233039197
 20
277.5741834243935
 30
0.0
 11
534.0513485720193
 21
277.5741834243932
 31
0.0
  0
LINE
  5
5C4
330
1F
100
AcDbEntity
  8
図面枠
  6
Continuous
100
AcDbLine
 10
642.3088233039199
 20
309.4328188067135
 30
0.0
 11
451.0399374305817
 21
309.4328188067135
 31
0.0
  0
MTEXT
  5
5C5
330
1F
100
AcDbEntity
  8
文字
  6
Continuous
100
AcDbMText
 10
456.2058252465826
 20
307.8367270841437
 30
0.0
 40
2.0
 41
30.73155332927162
 46
0.0
 71
     1
 72
     5
  1
貫通する壁の構造等
 73
     1
 44
0.75
101
Embedded Object
 70
     1
 10
1.0
 20
0.0
 30
0.0
 11
456.2058252465826
 21
307.8367270841437
 31
0.0
 40
30.73155332927162
 41
0.0
 42
25.26136363636364
 43
2.659090909090909
 71
     2
 72
     1
 44
30.73155332927162
 45
0.8849620939533352
 73
     0
 74
     0
 46
2.580461047574065
  0
MTEXT
  5
5C6
330
1F
100
AcDbEntity
  8
文字
  6
Continuous
100
AcDbMText
 10
578.1182414955797
 20
307.8367270841437
 30
0.0
 40
2.0
 41
37.12334407578182
 46
0.0
 71
     1
 72
     5
  1
{\fMS PGothic|b0|i0|c128|p50;中空間仕切壁　厚さ１００以上}
 73
     1
 44
0.75
101
Embedded Object
 70
     1
 10
1.0
 20
0.0
 30
0.0
 11
578.1182414955797
 21
307.8367270841437
 31
0.0
 40
37.12334407578182
 41
0.0
 42
35.69318181818181
 43
2.613636363636363
 71
     2
 72
     1
 44
37.12334407578182
 45
0.8849620939533352
 73
     0
 74
     0
 46
2.580461047574065
  0
MTEXT
  5
5C7
330
1F
100
AcDbEntity
  8
文字
  6
Continuous
100
AcDbMText
 10
577.7319931295457
 20
291.9074093929834
 30
0.0
 40
2.0
 41
30.73155332927162
 46
0.0
 71
     1
 72
     5
  1
１本以下
 73
     1
 44
0.75
101
Embedded Object
 70
     1
 10
1.0
 20
0.0
 30
0.0
 11
577.7319931295457
 21
291.9074093929834
 31
0.0
 40
30.73155332927162
 41
0.0
 42
10.05681818181818
 43
2.579545454545454
 71
     2
 72
     1
 44
30.73155332927162
 45
0.8849620939533352
 73
     0
 74
     0
 46
2.580461047574065
  0
MTEXT
  5
5C8
330
1F
100
AcDbEntity
  8
文字
  6
Continuous
100
AcDbMText
 10
577.7319931295457
 20
297.2171819567035
 30
0.0
 40
2.0
 41
30.73155332927162
 46
0.0
 71
     1
 72
     5
  1
１条以下
 73
     1
 44
0.75
101
Embedded Object
 70
     1
 10
1.0
 20
0.0
 30
0.0
 11
577.7319931295457
 21
297.2171819567035
 31
0.0
 40
30.73155332927162
 41
0.0
 42
10.05681818181818
 43
2.647727272727272
 71
     2
 72
     1
 44
30.73155332927162
 45
0.8849620939533352
 73
     0
 74
     0
 46
2.580461047574065
  0
LINE
  5
5C9
330
1F
100
AcDbEntity
  8
図面枠
  6
Continuous
100
AcDbLine
 10
534.0513485720193
 20
298.8132736792733
 30
0.0
 11
534.0513485720193
 21
266.954638296952
 31
0.0
  0
MTEXT
  5
5CA
330
1F
100
AcDbEntity
  8
文字
  6
Continuous
100
AcDbMText
 10
501.855039908008
 20
297.2171819567035
 30
0.0
 40
2.0
 41
60.7835669328564
 46
0.0
 71
     1
 72
     5
  1
電力ケーブル
 73
     1
 44
0.75
101
Embedded Object
 70
     1
 10
1.0
 20
0.0
 30
0.0
 11
501.855039908008
 21
297.2171819567035
 31
0.0
 40
60.7835669328564
 41
0.0
 42
16.44318181818182
 43
2.71590909090909
 71
     2
 72
     1
 44
60.7835669328564
 45
0.8849620939533352
 73
     0
 74
     0
 46
2.569124224878326
  0
MTEXT
  5
5CB
330
1F
100
AcDbEntity
  8
文字
  6
Continuous
100
AcDbMText
 10
501.855039908008
 20
286.5976368292636
 30
0.0
 40
2.0
 41
60.7835669328564
 46
0.0
 71
     1
 72
     5
  1
光ケーブル
 73
     1
 44
0.75
101
Embedded Object
 70
     1
 10
1.0
 20
0.0
 30
0.0
 11
501.855039908008
 21
286.5976368292636
 31
0.0
 40
60.7835669328564
 41
0.0
 42
13.57954545454545
 43
2.727272727272727
 71
     2
 72
     1
 44
60.7835669328564
 45
0.8849620939533352
 73
     0
 74
     0
 46
2.569124224878326
  0
LINE
  5
5CC
330
1F
100
AcDbEntity
  8
図面枠
  6
Continuous
100
AcDbLine
 10
499.6911313480259
 20
298.8132736792733
 30
0.0
 11
499.6911313480259
 21
266.954638296952
 31
0.0
  0
MTEXT
  5
5CD
330
1F
100
AcDbEntity
  8
文字
  6
Continuous
100
AcDbMText
 10
485.8576085005374
 20
297.2171819567035
 30
0.0
 40
2.0
 41
60.7835669328564
 46
0.0
 71
     1
 72
     5
  1
ＰＦ５４
 73
     1
 44
0.75
101
Embedded Object
 70
     1
 10
1.0
 20
0.0
 30
0.0
 11
485.8576085005374
 21
297.2171819567035
 31
0.0
 40
60.7835669328564
 41
0.0
 42
7.397727272727272
 43
2.0
 71
     2
 72
     1
 44
60.7835669328564
 45
0.8849620939533352
 73
     0
 74
     0
 46
2.569124224878326
  0
MTEXT
  5
5CE
330
1F
100
AcDbEntity
  8
文字
  6
Continuous
100
AcDbMText
 10
485.8576085005374
 20
281.2878642655435
 30
0.0
 40
2.0
 41
60.7835669328564
 46
0.0
 71
     1
 72
     5
  1
ＣＤ５４
 73
     1
 44
0.75
101
Embedded Object
 70
     1
 10
1.0
 20
0.0
 30
0.0
 11
485.8576085005374
 21
281.2878642655435
 31
0.0
 40
60.7835669328564
 41
0.0
 42
7.988636363636365
 43
2.0
 71
     2
 72
     1
 44
60.7835669328564
 45
0.8849620939533352
 73
     0
 74
     0
 46
2.569124224878326
  0
MTEXT
  5
5CF
330
1F
100
AcDbEntity
  8
文字
  6
Continuous
100
AcDbMText
 10
501.855039908008
 20
281.2878642655436
 30
0.0
 40
2.0
 41
60.7835669328564
 46
0.0
 71
     1
 72
     5
  1
電力ケーブル
 73
     1
 44
0.75
101
Embedded Object
 70
     1
 10
1.0
 20
0.0
 30
0.0
 11
501.855039908008
 21
281.2878642655436
 31
0.0
 40
60.7835669328564
 41
0.0
 42
16.44318181818182
 43
2.71590909090909
 71
     2
 72
     1
 44
60.7835669328564
 45
0.8849620939533352
 73
     0
 74
     0
 46
2.569124224878326
  0
MTEXT
  5
5D0
330
1F
100
AcDbEntity
  8
文字
  6
Continuous
100
AcDbMText
 10
501.855039908008
 20
270.6683191381036
 30
0.0
 40
2.0
 41
60.7835669328564
 46
0.0
 71
     1
 72
     5
  1
光ケーブル
 73
     1
 44
0.75
101
Embedded Object
 70
     1
 10
1.0
 20
0.0
 30
0.0
 11
501.855039908008
 21
270.6683191381036
 31
0.0
 40
60.7835669328564
 41
0.0
 42
13.57954545454545
 43
2.727272727272727
 71
     2
 72
     1
 44
60.7835669328564
 45
0.8849620939533352
 73
     0
 74
     0
 46
2.569124224878326
  0
MTEXT
  5
5D1
330
1F
100
AcDbEntity
  8
文字
  6
Continuous
100
AcDbMText
 10
537.6482181225451
 20
281.2878642655436
 30
0.0
 40
2.0
 41
60.7835669328564
 46
0.0
 71
     1
 72
     5
  1
{\fMS PGothic|b0|i0|c128|p50;ＣＥＴ ２２㎟（６００Ｖ）以下}
 73
     1
 44
0.75
101
Embedded Object
 70
     1
 10
1.0
 20
0.0
 30
0.0
 11
537.6482181225451
 21
281.2878642655436
 31
0.0
 40
60.7835669328564
 41
0.0
 42
30.15909090909091
 43
2.670454545454545
 71
     2
 72
     1
 44
60.7835669328564
 45
0.8849620939533352
 73
     0
 74
     0
 46
2.569124224878326
  0
MTEXT
  5
5D2
330
1F
100
AcDbEntity
  8
文字
  6
Continuous
100
AcDbMText
 10
537.6482181225449
 20
270.6683191381038
 30
0.0
 40
2.0
 41
39.61361875815363
 46
0.0
 71
     1
 72
     5
  1
外径９以下
 73
     1
 44
0.75
101
Embedded Object
 70
     1
 10
1.0
 20
0.0
 30
0.0
 11
537.6482181225449
 21
270.6683191381038
 31
0.0
 40
39.61361875815363
 41
0.0
 42
13.22727272727272
 43
2.590909090909091
 71
     2
 72
     1
 44
39.61361875815363
 45
0.8849620939533352
 73
     0
 74
     0
 46
2.035388305534273
  0
MTEXT
  5
5D3
330
1F
100
AcDbEntity
  8
文字
  6
Continuous
100
AcDbMText
 10
537.6482181225451
 20
275.9780917018235
 30
0.0
 40
2.0
 41
60.7835669328564
 46
0.0
 71
     1
 72
     5
  1
{\fMS PGothic|b0|i0|c128|p50;ＶＶＦ ２}×{\fMS PGothic|b0|i0|c128|p50;３Ｃ以下}
 73
     1
 44
0.75
101
Embedded Object
 70
     1
 10
1.0
 20
0.0
 30
0.0
 11
537.6482181225451
 21
275.9780917018235
 31
0.0
 40
60.7835669328564
 41
0.0
 42
20.19983256852288
 43
2.352272727272727
 71
     2
 72
     1
 44
60.7835669328564
 45
0.8849620939533352
 73
     0
 74
     0
 46
2.569124224878326
  0
MTEXT
  5
5D4
330
1F
100
AcDbEntity
  8
文字
  6
Continuous
100
AcDbMText
 10
577.7319931295457
 20
270.668319138104
 30
0.0
 40
2.0
 41
30.73155332927162
 46
0.0
 71
     1
 72
     5
  1
１本以下
 73
     1
 44
0.75
101
Embedded Object
 70
     1
 10
1.0
 20
0.0
 30
0.0
 11
577.7319931295457
 21
270.668319138104
 31
0.0
 40
30.73155332927162
 41
0.0
 42
10.05681818181818
 43
2.579545454545454
 71
     2
 72
     1
 44
30.73155332927162
 45
0.8849620939533352
 73
     0
 74
     0
 46
2.580461047574065
  0
MTEXT
  5
5D5
330
1F
100
AcDbEntity
  8
文字
  6
Continuous
100
AcDbMText
 10
577.7319931295457
 20
275.9780917018237
 30
0.0
 40
2.0
 41
30.73155332927162
 46
0.0
 71
     1
 72
     5
  1
１本以下
 73
     1
 44
0.75
101
Embedded Object
 70
     1
 10
1.0
 20
0.0
 30
0.0
 11
577.7319931295457
 21
275.9780917018237
 31
0.0
 40
30.73155332927162
 41
0.0
 42
10.05681818181818
 43
2.579545454545454
 71
     2
 72
     1
 44
30.73155332927162
 45
0.8849620939533352
 73
     0
 74
     0
 46
2.580461047574065
  0
MTEXT
  5
5D6
330
1F
100
AcDbEntity
  8
文字
  6
Continuous
100
AcDbMText
 10
577.7319931295457
 20
281.2878642655438
 30
0.0
 40
2.0
 41
30.73155332927162
 46
0.0
 71
     1
 72
     5
  1
１条以下
 73
     1
 44
0.75
101
Embedded Object
 70
     1
 10
1.0
 20
0.0
 30
0.0
 11
577.7319931295457
 21
281.2878642655438
 31
0.0
 40
30.73155332927162
 41
0.0
 42
10.05681818181818
 43
2.647727272727272
 71
     2
 72
     1
 44
30.73155332927162
 45
0.8849620939533352
 73
     0
 74
     0
 46
2.580461047574065
  0
LINE
  5
5D7
330
1F
100
AcDbEntity
  8
防火材
  6
Continuous
370
    13
100
AcDbLine
 10
536.4650479116671
 20
424.9312487504992
 30
0.0
 11
536.4650479116671
 21
399.2160466420712
 31
0.0
  0
LINE
  5
5D8
330
1F
100
AcDbEntity
  8
防火材
  6
Continuous
370
    13
100
AcDbLine
 10
537.5414100401721
 20
424.9312487504992
 30
0.0
 11
537.5414100401721
 21
399.2160466420712
 31
0.0
  0
LINE
  5
5D9
330
1F
100
AcDbEntity
  8
防火材
  6
Continuous
370
    13
100
AcDbLine
 10
538.6177721686772
 20
424.9312487504992
 30
0.0
 11
538.6177721686772
 21
399.2160466420712
 31
0.0
  0
LINE
  5
5DA
330
1F
100
AcDbEntity
  8
防火材
  6
Continuous
370
    13
100
AcDbLine
 10
539.6941342971822
 20
424.9312487504992
 30
0.0
 11
539.6941342971822
 21
399.2160466420712
 31
0.0
  0
LINE
  5
5DB
330
1F
100
AcDbEntity
  8
防火材
  6
Continuous
370
    13
100
AcDbLine
 10
537.5414100401721
 20
424.6864746241806
 30
0.0
 11
538.6177721686772
 21
424.6864746241806
 31
0.0
  0
LINE
  5
5DC
330
1F
100
AcDbEntity
  8
防火材
  6
Continuous
370
    13
100
AcDbLine
 10
539.6941342971822
 20
424.6864746241806
 30
0.0
 11
540.7704964256872
 21
424.6864746241806
 31
0.0
  0
LINE
  5
5DD
330
1F
100
AcDbEntity
  8
防火材
  6
Continuous
370
    13
100
AcDbLine
 10
540.7704964256872
 20
424.9312487504992
 30
0.0
 11
540.7704964256872
 21
399.2160466420712
 31
0.0
  0
LINE
  5
5DE
330
1F
100
AcDbEntity
  8
防火材
  6
Continuous
370
    13
100
AcDbLine
 10
535.3886857831621
 20
424.6864746241806
 30
0.0
 11
536.4650479116671
 21
424.6864746241806
 31
0.0
  0
LINE
  5
5DF
330
1F
100
AcDbEntity
  8
防火材
  6
Continuous
370
    13
100
AcDbLine
 10
535.3886857831621
 20
424.9312487504992
 30
0.0
 11
535.3886857831621
 21
399.2160466420712
 31
0.0
  0
LINE
  5
5E0
330
1F
100
AcDbEntity
  8
防火材
  6
Continuous
370
    13
100
AcDbLine
 10
541.8468585541923
 20
424.931248750499
 30
0.0
 11
541.8468585541923
 21
399.2160466420711
 31
0.0
  0
LINE
  5
5E1
330
1F
100
AcDbEntity
  8
防火材
  6
Continuous
370
    13
100
AcDbLine
 10
542.9232206826973
 20
424.931248750499
 30
0.0
 11
542.9232206826973
 21
399.2160466420711
 31
0.0
  0
LINE
  5
5E2
330
1F
100
AcDbEntity
  8
防火材
  6
Continuous
370
    13
100
AcDbLine
 10
543.9995828112023
 20
424.931248750499
 30
0.0
 11
543.9995828112023
 21
399.2160466420711
 31
0.0
  0
LINE
  5
5E3
330
1F
100
AcDbEntity
  8
防火材
  6
Continuous
370
    13
100
AcDbLine
 10
545.0759449397073
 20
424.931248750499
 30
0.0
 11
545.0759449397073
 21
399.2160466420711
 31
0.0
  0
LINE
  5
5E4
330
1F
100
AcDbEntity
  8
防火材
  6
Continuous
370
    13
100
AcDbLine
 10
546.1523070682123
 20
424.931248750499
 30
0.0
 11
546.1523070682123
 21
399.2160466420711
 31
0.0
  0
LINE
  5
5E5
330
1F
100
AcDbEntity
  8
防火材
  6
Continuous
370
    13
100
AcDbLine
 10
547.2286691967174
 20
424.9312487504992
 30
0.0
 11
547.2286691967174
 21
399.2160466420712
 31
0.0
  0
LINE
  5
5E6
330
1F
100
AcDbEntity
  8
防火材
  6
Continuous
370
    13
100
AcDbLine
 10
548.3050313252224
 20
424.9312487504992
 30
0.0
 11
548.3050313252224
 21
399.2160466420712
 31
0.0
  0
LINE
  5
5E7
330
1F
100
AcDbEntity
  8
防火材
  6
Continuous
370
    13
100
AcDbLine
 10
549.3813934537274
 20
424.9312487504992
 30
0.0
 11
549.3813934537274
 21
399.2160466420712
 31
0.0
  0
LINE
  5
5E8
330
1F
100
AcDbEntity
  8
防火材
  6
Continuous
370
    13
100
AcDbLine
 10
550.4577555822325
 20
424.9312487504992
 30
0.0
 11
550.4577555822325
 21
399.2160466420712
 31
0.0
  0
LINE
  5
5E9
330
1F
100
AcDbEntity
  8
防火材
  6
Continuous
370
    13
100
AcDbLine
 10
551.5341177107375
 20
424.9312487504992
 30
0.0
 11
551.5341177107375
 21
399.2160466420712
 31
0.0
  0
LINE
  5
5EA
330
1F
100
AcDbEntity
  8
防火材
  6
Continuous
370
    13
100
AcDbLine
 10
543.9995828112023
 20
424.6864746241806
 30
0.0
 11
545.0759449397073
 21
424.6864746241806
 31
0.0
  0
LINE
  5
5EB
330
1F
100
AcDbEntity
  8
防火材
  6
Continuous
370
    13
100
AcDbLine
 10
546.1523070682123
 20
424.6864746241806
 30
0.0
 11
547.2286691967174
 21
424.6864746241806
 31
0.0
  0
LINE
  5
5EC
330
1F
100
AcDbEntity
  8
防火材
  6
Continuous
370
    13
100
AcDbLine
 10
541.8468585541923
 20
424.6864746241806
 30
0.0
 11
542.9232206826973
 21
424.6864746241806
 31
0.0
  0
LINE
  5
5ED
330
1F
100
AcDbEntity
  8
防火材
  6
Continuous
370
    13
100
AcDbLine
 10
550.4577555822325
 20
424.6864746241806
 30
0.0
 11
551.5341177107375
 21
424.6864746241806
 31
0.0
  0
LINE
  5
5EE
330
1F
100
AcDbEntity
  8
防火材
  6
Continuous
370
    13
100
AcDbLine
 10
548.3050313252224
 20
424.6864746241806
 30
0.0
 11
549.3813934537274
 21
424.6864746241806
 31
0.0
  0
LINE
  5
5EF
330
1F
100
AcDbEntity
  8
防火材
  6
Continuous
370
    13
100
AcDbLine
 10
534.3123236546571
 20
424.9312487504992
 30
0.0
 11
535.3886857831621
 21
424.9312487504992
 31
0.0
  0
LINE
  5
5F0
330
1F
100
AcDbEntity
  8
防火材
  6
Continuous
370
    13
100
AcDbLine
 10
534.3123236546571
 20
424.9312487504992
 30
0.0
 11
534.3123236546571
 21
420.7114202521722
 31
0.0
  0
LINE
  5
5F1
330
1F
100
AcDbEntity
  8
防火材
  6
Continuous
370
    13
100
AcDbLine
 10
534.3123236546571
 20
416.2934761945894
 30
0.0
 11
534.3123236546571
 21
399.2160466420713
 31
0.0
  0
LINE
  5
5F2
330
1F
100
AcDbEntity
  8
防火材
  6
Continuous
370
    13
100
AcDbLine
 10
533.2359615261521
 20
424.6864746241807
 30
0.0
 11
534.3123236546571
 21
424.6864746241806
 31
0.0
  0
LINE
  5
5F3
330
1F
100
AcDbEntity
  8
防火材
  6
Continuous
370
    13
100
AcDbLine
 10
533.2359615261521
 20
424.9312487504993
 30
0.0
 11
533.2359615261521
 21
424.1407218930355
 31
0.0
  0
LINE
  5
5F4
330
1F
100
AcDbEntity
  8
防火材
  6
Continuous
370
    13
100
AcDbLine
 10
533.2359615261521
 20
412.8641745537262
 30
0.0
 11
533.2359615261521
 21
399.2160466420713
 31
0.0
  0
LINE
  5
5F5
330
1F
100
AcDbEntity
  8
防火材
  6
Continuous
370
    13
100
AcDbLine
 10
551.5341177107375
 20
424.9312487504992
 30
0.0
 11
552.6104798392425
 21
424.9312487504992
 31
0.0
  0
LINE
  5
5F6
330
1F
100
AcDbEntity
  8
防火材
  6
Continuous
370
    13
100
AcDbLine
 10
552.6104798392425
 20
424.9312487504992
 30
0.0
 11
552.6104798392425
 21
399.2160466420712
 31
0.0
  0
LINE
  5
5F7
330
1F
100
AcDbEntity
  8
防火材
  6
Continuous
370
    13
100
AcDbLine
 10
553.6868419677476
 20
424.9312487504992
 30
0.0
 11
553.6868419677476
 21
399.2160466420712
 31
0.0
  0
LINE
  5
5F8
330
1F
100
AcDbEntity
  8
防火材
  6
Continuous
370
    13
100
AcDbLine
 10
552.6104798392425
 20
424.6864746241806
 30
0.0
 11
553.6868419677476
 21
424.6864746241806
 31
0.0
  0
LINE
  5
5F9
330
1F
100
AcDbEntity
  8
防火材
  6
Continuous
370
    13
100
AcDbLine
 10
554.7632040962525
 20
424.9312487504992
 30
0.0
 11
554.7632040962525
 21
399.2160466420712
 31
0.0
  0
LINE
  5
5FA
330
1F
100
AcDbEntity
  8
防火材
  6
Continuous
370
    13
100
AcDbLine
 10
555.8395662247575
 20
424.9312487504992
 30
0.0
 11
555.8395662247575
 21
399.2160466420712
 31
0.0
  0
LINE
  5
5FB
330
1F
100
AcDbEntity
  8
防火材
  6
Continuous
370
    13
100
AcDbLine
 10
554.7632040962525
 20
424.6864746241806
 30
0.0
 11
555.8395662247575
 21
424.6864746241806
 31
0.0
  0
LINE
  5
5FC
330
1F
100
AcDbEntity
  8
防火材
  6
Continuous
370
    13
100
AcDbLine
 10
556.9159283532626
 20
424.9312487504992
 30
0.0
 11
556.9159283532626
 21
399.2160466420712
 31
0.0
  0
LINE
  5
5FD
330
1F
100
AcDbEntity
  8
防火材
  6
Continuous
370
    13
100
AcDbLine
 10
557.9922904817676
 20
424.9312487504992
 30
0.0
 11
557.9922904817676
 21
399.2160466420712
 31
0.0
  0
LINE
  5
5FE
330
1F
100
AcDbEntity
  8
防火材
  6
Continuous
370
    13
100
AcDbLine
 10
556.9159283532626
 20
424.6864746241806
 30
0.0
 11
557.9922904817676
 21
424.6864746241806
 31
0.0
  0
LINE
  5
5FF
330
1F
100
AcDbEntity
  8
防火材
  6
Continuous
370
    13
100
AcDbLine
 10
559.0686526102727
 20
424.9312487504992
 30
0.0
 11
559.0686526102727
 21
399.2160466420712
 31
0.0
  0
LINE
  5
600
330
1F
100
AcDbEntity
  8
防火材
  6
Continuous
370
    13
100
AcDbLine
 10
560.1450147387777
 20
424.9312487504992
 30
0.0
 11
560.1450147387777
 21
399.2160466420712
 31
0.0
  0
LINE
  5
601
330
1F
100
AcDbEntity
  8
防火材
  6
Continuous
370
    13
100
AcDbLine
 10
559.0686526102727
 20
424.6864746241806
 30
0.0
 11
560.1450147387777
 21
424.6864746241806
 31
0.0
  0
LINE
  5
602
330
1F
100
AcDbEntity
  8
防火材
  6
Continuous
370
    13
100
AcDbLine
 10
532.8303676887253
 20
399.2160466420717
 30
0.0
 11
533.2359615261521
 21
399.2160466420717
 31
0.0
  0
LINE
  5
603
330
1F
100
AcDbEntity
  8
防火材
  6
Continuous
370
    13
100
AcDbLine
 10
534.3123236546571
 20
399.2160466420717
 30
0.0
 11
535.3886857831621
 21
399.2160466420717
 31
0.0
  0
LINE
  5
604
330
1F
100
AcDbEntity
  8
防火材
  6
Continuous
370
    13
100
AcDbLine
 10
536.4650479116671
 20
399.2160466420717
 30
0.0
 11
537.5414100401721
 21
399.2160466420717
 31
0.0
  0
LINE
  5
605
330
1F
100
AcDbEntity
  8
防火材
  6
Continuous
370
    13
100
AcDbLine
 10
538.6177721686772
 20
399.2160466420717
 30
0.0
 11
539.6941342971822
 21
399.2160466420717
 31
0.0
  0
LINE
  5
606
330
1F
100
AcDbEntity
  8
防火材
  6
Continuous
370
    13
100
AcDbLine
 10
540.7704964256872
 20
399.2160466420717
 30
0.0
 11
541.8468585541923
 21
399.2160466420717
 31
0.0
  0
LINE
  5
607
330
1F
100
AcDbEntity
  8
防火材
  6
Continuous
370
    13
100
AcDbLine
 10
542.9232206826973
 20
399.2160466420717
 30
0.0
 11
543.9995828112023
 21
399.2160466420717
 31
0.0
  0
LINE
  5
608
330
1F
100
AcDbEntity
  8
防火材
  6
Continuous
370
    13
100
AcDbLine
 10
545.0759449397073
 20
399.2160466420717
 30
0.0
 11
546.1523070682123
 21
399.2160466420717
 31
0.0
  0
LINE
  5
609
330
1F
100
AcDbEntity
  8
防火材
  6
Continuous
370
    13
100
AcDbLine
 10
547.2286691967174
 20
399.2160466420717
 30
0.0
 11
548.3050313252224
 21
399.2160466420716
 31
0.0
  0
LINE
  5
60A
330
1F
100
AcDbEntity
  8
防火材
  6
Continuous
370
    13
100
AcDbLine
 10
549.3813934537274
 20
399.2160466420716
 30
0.0
 11
550.4577555822325
 21
399.2160466420717
 31
0.0
  0
LINE
  5
60B
330
1F
100
AcDbEntity
  8
防火材
  6
Continuous
370
    13
100
AcDbLine
 10
551.5341177107375
 20
399.2160466420717
 30
0.0
 11
552.6104798392425
 21
399.2160466420717
 31
0.0
  0
LINE
  5
60C
330
1F
100
AcDbEntity
  8
防火材
  6
Continuous
370
    13
100
AcDbLine
 10
553.6868419677476
 20
399.2160466420717
 30
0.0
 11
554.7632040962525
 21
399.2160466420717
 31
0.0
  0
LINE
  5
60D
330
1F
100
AcDbEntity
  8
防火材
  6
Continuous
370
    13
100
AcDbLine
 10
555.8395662247575
 20
399.2160466420717
 30
0.0
 11
556.9159283532626
 21
399.2160466420717
 31
0.0
  0
LINE
  5
60E
330
1F
100
AcDbEntity
  8
防火材
  6
Continuous
370
    13
100
AcDbLine
 10
557.9922904817676
 20
399.2160466420717
 30
0.0
 11
559.0686526102727
 21
399.2160466420717
 31
0.0
  0
LINE
  5
60F
330
1F
100
AcDbEntity
  8
防火材
  6
Continuous
370
    13
100
AcDbLine
 10
560.1450147387777
 20
399.2160466420717
 30
0.0
 11
561.2213768672827
 21
399.2160466420717
 31
0.0
  0
LINE
  5
610
330
1F
100
AcDbEntity
  8
防火材
  6
Continuous
370
    13
100
AcDbLine
 10
537.5414100401721
 20
399.4608207683902
 30
0.0
 11
538.6177721686772
 21
399.4608207683902
 31
0.0
  0
LINE
  5
611
330
1F
100
AcDbEntity
  8
防火材
  6
Continuous
370
    13
100
AcDbLine
 10
539.6941342971822
 20
399.4608207683902
 30
0.0
 11
540.7704964256872
 21
399.4608207683902
 31
0.0
  0
LINE
  5
612
330
1F
100
AcDbEntity
  8
防火材
  6
Continuous
370
    13
100
AcDbLine
 10
535.3886857831621
 20
399.4608207683902
 30
0.0
 11
536.4650479116671
 21
399.4608207683902
 31
0.0
  0
LINE
  5
613
330
1F
100
AcDbEntity
  8
防火材
  6
Continuous
370
    13
100
AcDbLine
 10
543.9995828112023
 20
399.4608207683902
 30
0.0
 11
545.0759449397073
 21
399.4608207683902
 31
0.0
  0
LINE
  5
614
330
1F
100
AcDbEntity
  8
防火材
  6
Continuous
370
    13
100
AcDbLine
 10
546.1523070682123
 20
399.4608207683902
 30
0.0
 11
547.2286691967174
 21
399.4608207683902
 31
0.0
  0
LINE
  5
615
330
1F
100
AcDbEntity
  8
防火材
  6
Continuous
370
    13
100
AcDbLine
 10
541.8468585541923
 20
399.4608207683902
 30
0.0
 11
542.9232206826973
 21
399.4608207683902
 31
0.0
  0
LINE
  5
616
330
1F
100
AcDbEntity
  8
防火材
  6
Continuous
370
    13
100
AcDbLine
 10
550.4577555822325
 20
399.4608207683902
 30
0.0
 11
551.5341177107375
 21
399.4608207683902
 31
0.0
  0
LINE
  5
617
330
1F
100
AcDbEntity
  8
防火材
  6
Continuous
370
    13
100
AcDbLine
 10
548.3050313252224
 20
399.4608207683902
 30
0.0
 11
549.3813934537274
 21
399.4608207683902
 31
0.0
  0
LINE
  5
618
330
1F
100
AcDbEntity
  8
防火材
  6
Continuous
370
    13
100
AcDbLine
 10
534.3123236546571
 20
399.2160466420716
 30
0.0
 11
535.3886857831621
 21
399.2160466420717
 31
0.0
  0
LINE
  5
619
330
1F
100
AcDbEntity
  8
防火材
  6
Continuous
370
    13
100
AcDbLine
 10
533.2359615261521
 20
399.4608207683901
 30
0.0
 11
534.3123236546571
 21
399.4608207683902
 31
0.0
  0
LINE
  5
61A
330
1F
100
AcDbEntity
  8
防火材
  6
Continuous
370
    13
100
AcDbLine
 10
533.2359615261521
 20
399.2160466420715
 30
0.0
 11
533.2359615261521
 21
400.0065734995352
 31
0.0
  0
LINE
  5
61B
330
1F
100
AcDbEntity
  8
防火材
  6
Continuous
370
    13
100
AcDbLine
 10
551.5341177107375
 20
399.2160466420716
 30
0.0
 11
552.6104798392425
 21
399.2160466420717
 31
0.0
  0
LINE
  5
61C
330
1F
100
AcDbEntity
  8
防火材
  6
Continuous
370
    13
100
AcDbLine
 10
552.6104798392425
 20
399.4608207683902
 30
0.0
 11
553.6868419677476
 21
399.4608207683902
 31
0.0
  0
LINE
  5
61D
330
1F
100
AcDbEntity
  8
防火材
  6
Continuous
370
    13
100
AcDbLine
 10
554.7632040962525
 20
399.4608207683902
 30
0.0
 11
555.8395662247575
 21
399.4608207683902
 31
0.0
  0
LINE
  5
61E
330
1F
100
AcDbEntity
  8
防火材
  6
Continuous
370
    13
100
AcDbLine
 10
556.9159283532626
 20
399.4608207683902
 30
0.0
 11
557.9922904817676
 21
399.4608207683902
 31
0.0
  0
LINE
  5
61F
330
1F
100
AcDbEntity
  8
防火材
  6
Continuous
370
    13
100
AcDbLine
 10
559.0686526102727
 20
399.4608207683902
 30
0.0
 11
560.1450147387777
 21
399.4608207683902
 31
0.0
  0
LINE
  5
620
330
1F
100
AcDbEntity
  8
防火材
  6
Continuous
370
    13
100
AcDbLine
 10
562.2977389957878
 20
424.9312487504993
 30
0.0
 11
563.3741011242928
 21
424.9312487504993
 31
0.0
  0
LINE
  5
621
330
1F
100
AcDbEntity
  8
防火材
  6
Continuous
370
    13
100
AcDbLine
 10
564.4504632527977
 20
424.9312487504993
 30
0.0
 11
565.5268253813028
 21
424.9312487504993
 31
0.0
  0
LINE
  5
622
330
1F
100
AcDbEntity
  8
防火材
  6
Continuous
370
    13
100
AcDbLine
 10
566.6031875098078
 20
424.9312487504993
 30
0.0
 11
567.6795496383128
 21
424.9312487504993
 31
0.0
  0
LINE
  5
623
330
1F
100
AcDbEntity
  8
防火材
  6
Continuous
370
    13
100
AcDbLine
 10
568.7559117668179
 20
424.9312487504993
 30
0.0
 11
569.8322738953229
 21
424.9312487504993
 31
0.0
  0
LINE
  5
624
330
1F
100
AcDbEntity
  8
防火材
  6
Continuous
370
    13
100
AcDbLine
 10
570.908636023828
 20
424.9312487504993
 30
0.0
 11
571.984998152333
 21
424.9312487504993
 31
0.0
  0
LINE
  5
625
330
1F
100
AcDbEntity
  8
防火材
  6
Continuous
370
    13
100
AcDbLine
 10
573.061360280838
 20
424.9312487504993
 30
0.0
 11
574.137722409343
 21
424.9312487504992
 31
0.0
  0
LINE
  5
626
330
1F
100
AcDbEntity
  8
防火材
  6
Continuous
370
    13
100
AcDbLine
 10
575.214084537848
 20
424.9312487504992
 30
0.0
 11
576.290446666353
 21
424.9312487504992
 31
0.0
  0
LINE
  5
627
330
1F
100
AcDbEntity
  8
防火材
  6
Continuous
370
    13
100
AcDbLine
 10
561.2213768672827
 20
424.9312487504992
 30
0.0
 11
561.2213768672827
 21
399.2160466420712
 31
0.0
  0
LINE
  5
628
330
1F
100
AcDbEntity
  8
防火材
  6
Continuous
370
    13
100
AcDbLine
 10
562.2977389957878
 20
424.9312487504993
 30
0.0
 11
562.2977389957878
 21
399.2160466420713
 31
0.0
  0
LINE
  5
629
330
1F
100
AcDbEntity
  8
防火材
  6
Continuous
370
    13
100
AcDbLine
 10
563.3741011242928
 20
424.9312487504993
 30
0.0
 11
563.3741011242928
 21
399.2160466420713
 31
0.0
  0
LINE
  5
62A
330
1F
100
AcDbEntity
  8
防火材
  6
Continuous
370
    13
100
AcDbLine
 10
564.4504632527977
 20
424.9312487504993
 30
0.0
 11
564.4504632527977
 21
399.2160466420713
 31
0.0
  0
LINE
  5
62B
330
1F
100
AcDbEntity
  8
防火材
  6
Continuous
370
    13
100
AcDbLine
 10
565.5268253813028
 20
424.9312487504993
 30
0.0
 11
565.5268253813028
 21
399.2160466420713
 31
0.0
  0
LINE
  5
62C
330
1F
100
AcDbEntity
  8
防火材
  6
Continuous
370
    13
100
AcDbLine
 10
566.6031875098078
 20
424.9312487504992
 30
0.0
 11
566.6031875098078
 21
399.2160466420713
 31
0.0
  0
LINE
  5
62D
330
1F
100
AcDbEntity
  8
防火材
  6
Continuous
370
    13
100
AcDbLine
 10
561.2213768672827
 20
424.6864746241807
 30
0.0
 11
562.2977389957878
 21
424.6864746241806
 31
0.0
  0
LINE
  5
62E
330
1F
100
AcDbEntity
  8
防火材
  6
Continuous
370
    13
100
AcDbLine
 10
565.5268253813028
 20
424.6864746241807
 30
0.0
 11
566.6031875098078
 21
424.6864746241807
 31
0.0
  0
LINE
  5
62F
330
1F
100
AcDbEntity
  8
防火材
  6
Continuous
370
    13
100
AcDbLine
 10
563.3741011242928
 20
424.6864746241807
 30
0.0
 11
564.4504632527977
 21
424.6864746241807
 31
0.0
  0
LINE
  5
630
330
1F
100
AcDbEntity
  8
防火材
  6
Continuous
370
    13
100
AcDbLine
 10
566.6031875098078
 20
424.9312487504993
 30
0.0
 11
567.6795496383128
 21
424.9312487504993
 31
0.0
  0
LINE
  5
631
330
1F
100
AcDbEntity
  8
防火材
  6
Continuous
370
    13
100
AcDbLine
 10
567.6795496383128
 20
424.9312487504993
 30
0.0
 11
567.6795496383128
 21
399.2160466420713
 31
0.0
  0
LINE
  5
632
330
1F
100
AcDbEntity
  8
防火材
  6
Continuous
370
    13
100
AcDbLine
 10
568.7559117668179
 20
424.9312487504992
 30
0.0
 11
568.7559117668179
 21
399.2160466420713
 31
0.0
  0
LINE
  5
633
330
1F
100
AcDbEntity
  8
防火材
  6
Continuous
370
    13
100
AcDbLine
 10
567.6795496383128
 20
424.6864746241807
 30
0.0
 11
568.7559117668179
 21
424.6864746241807
 31
0.0
  0
LINE
  5
634
330
1F
100
AcDbEntity
  8
防火材
  6
Continuous
370
    13
100
AcDbLine
 10
569.8322738953229
 20
424.9312487504993
 30
0.0
 11
569.8322738953229
 21
399.2160466420713
 31
0.0
  0
LINE
  5
635
330
1F
100
AcDbEntity
  8
防火材
  6
Continuous
370
    13
100
AcDbLine
 10
570.908636023828
 20
424.9312487504992
 30
0.0
 11
570.908636023828
 21
399.2160466420713
 31
0.0
  0
LINE
  5
636
330
1F
100
AcDbEntity
  8
防火材
  6
Continuous
370
    13
100
AcDbLine
 10
569.8322738953229
 20
424.6864746241807
 30
0.0
 11
570.908636023828
 21
424.6864746241807
 31
0.0
  0
LINE
  5
637
330
1F
100
AcDbEntity
  8
防火材
  6
Continuous
370
    13
100
AcDbLine
 10
571.984998152333
 20
424.9312487504993
 30
0.0
 11
571.984998152333
 21
399.2160466420713
 31
0.0
  0
LINE
  5
638
330
1F
100
AcDbEntity
  8
防火材
  6
Continuous
370
    13
100
AcDbLine
 10
573.061360280838
 20
424.9312487504992
 30
0.0
 11
573.061360280838
 21
399.2160466420713
 31
0.0
  0
LINE
  5
639
330
1F
100
AcDbEntity
  8
防火材
  6
Continuous
370
    13
100
AcDbLine
 10
571.984998152333
 20
424.6864746241807
 30
0.0
 11
573.061360280838
 21
424.6864746241807
 31
0.0
  0
LINE
  5
63A
330
1F
100
AcDbEntity
  8
防火材
  6
Continuous
370
    13
100
AcDbLine
 10
574.137722409343
 20
424.9312487504993
 30
0.0
 11
574.137722409343
 21
399.2160466420713
 31
0.0
  0
LINE
  5
63B
330
1F
100
AcDbEntity
  8
防火材
  6
Continuous
370
    13
100
AcDbLine
 10
575.214084537848
 20
424.9312487504992
 30
0.0
 11
575.214084537848
 21
399.2160466420713
 31
0.0
  0
LINE
  5
63C
330
1F
100
AcDbEntity
  8
防火材
  6
Continuous
370
    13
100
AcDbLine
 10
574.137722409343
 20
424.6864746241807
 30
0.0
 11
575.214084537848
 21
424.6864746241807
 31
0.0
  0
LINE
  5
63D
330
1F
100
AcDbEntity
  8
防火材
  6
Continuous
370
    13
100
AcDbLine
 10
562.2977389957878
 20
399.2160466420717
 30
0.0
 11
563.3741011242928
 21
399.2160466420717
 31
0.0
  0
LINE
  5
63E
330
1F
100
AcDbEntity
  8
防火材
  6
Continuous
370
    13
100
AcDbLine
 10
564.4504632527977
 20
399.2160466420717
 30
0.0
 11
565.5268253813028
 21
399.2160466420717
 31
0.0
  0
LINE
  5
63F
330
1F
100
AcDbEntity
  8
防火材
  6
Continuous
370
    13
100
AcDbLine
 10
566.6031875098078
 20
399.2160466420717
 30
0.0
 11
567.6795496383128
 21
399.2160466420718
 31
0.0
  0
LINE
  5
640
330
1F
100
AcDbEntity
  8
防火材
  6
Continuous
370
    13
100
AcDbLine
 10
568.7559117668179
 20
399.2160466420718
 30
0.0
 11
569.8322738953229
 21
399.2160466420718
 31
0.0
  0
LINE
  5
641
330
1F
100
AcDbEntity
  8
防火材
  6
Continuous
370
    13
100
AcDbLine
 10
570.908636023828
 20
399.2160466420718
 30
0.0
 11
571.984998152333
 21
399.2160466420718
 31
0.0
  0
LINE
  5
642
330
1F
100
AcDbEntity
  8
防火材
  6
Continuous
370
    13
100
AcDbLine
 10
573.061360280838
 20
399.2160466420718
 30
0.0
 11
574.137722409343
 21
399.2160466420718
 31
0.0
  0
LINE
  5
643
330
1F
100
AcDbEntity
  8
防火材
  6
Continuous
370
    13
100
AcDbLine
 10
575.214084537848
 20
399.2160466420718
 30
0.0
 11
576.290446666353
 21
399.2160466420718
 31
0.0
  0
LINE
  5
644
330
1F
100
AcDbEntity
  8
防火材
  6
Continuous
370
    13
100
AcDbLine
 10
561.2213768672827
 20
399.4608207683904
 30
0.0
 11
562.2977389957878
 21
399.4608207683904
 31
0.0
  0
LINE
  5
645
330
1F
100
AcDbEntity
  8
防火材
  6
Continuous
370
    13
100
AcDbLine
 10
565.5268253813028
 20
399.4608207683903
 30
0.0
 11
566.6031875098078
 21
399.4608207683904
 31
0.0
  0
LINE
  5
646
330
1F
100
AcDbEntity
  8
防火材
  6
Continuous
370
    13
100
AcDbLine
 10
563.3741011242928
 20
399.4608207683903
 30
0.0
 11
564.4504632527977
 21
399.4608207683904
 31
0.0
  0
LINE
  5
647
330
1F
100
AcDbEntity
  8
防火材
  6
Continuous
370
    13
100
AcDbLine
 10
566.6031875098078
 20
399.2160466420717
 30
0.0
 11
567.6795496383128
 21
399.2160466420717
 31
0.0
  0
LINE
  5
648
330
1F
100
AcDbEntity
  8
防火材
  6
Continuous
370
    13
100
AcDbLine
 10
567.6795496383128
 20
399.4608207683903
 30
0.0
 11
568.7559117668179
 21
399.4608207683904
 31
0.0
  0
LINE
  5
649
330
1F
100
AcDbEntity
  8
防火材
  6
Continuous
370
    13
100
AcDbLine
 10
569.8322738953229
 20
399.4608207683903
 30
0.0
 11
570.908636023828
 21
399.4608207683904
 31
0.0
  0
LINE
  5
64A
330
1F
100
AcDbEntity
  8
防火材
  6
Continuous
370
    13
100
AcDbLine
 10
571.984998152333
 20
399.4608207683903
 30
0.0
 11
573.061360280838
 21
399.4608207683904
 31
0.0
  0
LINE
  5
64B
330
1F
100
AcDbEntity
  8
防火材
  6
Continuous
370
    13
100
AcDbLine
 10
574.137722409343
 20
399.4608207683903
 30
0.0
 11
575.214084537848
 21
399.4608207683904
 31
0.0
  0
LINE
  5
64C
330
1F
100
AcDbEntity
  8
防火材
  6
Continuous
370
    13
100
AcDbLine
 10
576.290446666353
 20
424.9312487504992
 30
0.0
 11
576.290446666353
 21
399.2160466420713
 31
0.0
  0
LINE
  5
64D
330
1F
100
AcDbEntity
  8
防火材
  6
Continuous
370
    13
100
AcDbLine
 10
576.290446666353
 20
424.6864746241808
 30
0.0
 11
577.0314140839535
 21
424.6864746241808
 31
0.0
  0
LINE
  5
64E
330
1F
100
AcDbEntity
  8
防火材
  6
Continuous
370
    13
100
AcDbLine
 10
576.290446666353
 20
399.4608207683904
 30
0.0
 11
577.0314140839535
 21
399.4608207683905
 31
0.0
  0
ARC
  5
64F
330
1F
100
AcDbEntity
  8
防火材
  6
Continuous
370
    13
100
AcDbCircle
 10
605.4275986805739
 20
404.7534360661581
 30
0.0
 40
17.41778271714916
100
AcDbArc
 50
341.4630681599001
 51
24.85178021452232
  0
ARC
  5
650
330
1F
100
AcDbEntity
  8
防火材
  6
Continuous
370
    13
100
AcDbCircle
 10
610.9253533762511
 20
418.5024482234213
 30
0.0
 40
12.14767191885911
100
AcDbArc
 50
358.5809688644403
 51
31.95282183977147
  0
ARC
  5
651
330
1F
100
AcDbEntity
  8
防火材
  6
Continuous
370
    13
100
AcDbCircle
 10
632.7893913517357
 20
418.5024482233808
 30
0.0
 40
13.22467872618547
100
AcDbArc
 50
150.9140244606207
 51
209.0859755393821
  0
LINE
  5
652
330
1F
100
AcDbEntity
  8
防火材
  6
Continuous
370
    13
100
AcDbLine
 10
621.2324604791817
 20
424.9312487504992
 30
0.0
 11
620.8268666417549
 21
424.9312487504992
 31
0.0
  0
LINE
  5
653
330
1F
100
AcDbEntity
  8
防火材
  6
Continuous
370
    13
100
AcDbLine
 10
619.7505045132499
 20
424.9312487504992
 30
0.0
 11
618.6741423847449
 21
424.9312487504992
 31
0.0
  0
LINE
  5
654
330
1F
100
AcDbEntity
  8
防火材
  6
Continuous
370
    13
100
AcDbLine
 10
617.5977802562398
 20
424.9312487504992
 30
0.0
 11
616.5214181277349
 21
424.9312487504992
 31
0.0
  0
LINE
  5
655
330
1F
100
AcDbEntity
  8
防火材
  6
Continuous
370
    13
100
AcDbLine
 10
615.4450559992298
 20
424.9312487504992
 30
0.0
 11
614.3686938707247
 21
424.9312487504991
 31
0.0
  0
LINE
  5
656
330
1F
100
AcDbEntity
  8
防火材
  6
Continuous
370
    13
100
AcDbLine
 10
613.2923317422196
 20
424.9312487504991
 30
0.0
 11
612.2159696137146
 21
424.9312487504991
 31
0.0
  0
LINE
  5
657
330
1F
100
AcDbEntity
  8
防火材
  6
Continuous
370
    13
100
AcDbLine
 10
611.1396074852097
 20
424.9312487504991
 30
0.0
 11
610.0632453567047
 21
424.9312487504992
 31
0.0
  0
LINE
  5
658
330
1F
100
AcDbEntity
  8
防火材
  6
Continuous
370
    13
100
AcDbLine
 10
608.9868832281998
 20
424.9312487504992
 30
0.0
 11
607.9105210996946
 21
424.9312487504992
 31
0.0
  0
LINE
  5
659
330
1F
100
AcDbEntity
  8
防火材
  6
Continuous
370
    13
100
AcDbLine
 10
606.8341589711894
 20
424.9312487504992
 30
0.0
 11
605.7577968426845
 21
424.9312487504992
 31
0.0
  0
LINE
  5
65A
330
1F
100
AcDbEntity
  8
防火材
  6
Continuous
370
    13
100
AcDbLine
 10
604.6814347141795
 20
424.9312487504992
 30
0.0
 11
603.6050725856745
 21
424.9312487504992
 31
0.0
  0
LINE
  5
65B
330
1F
100
AcDbEntity
  8
防火材
  6
Continuous
370
    13
100
AcDbLine
 10
602.5287104571695
 20
424.9312487504992
 30
0.0
 11
601.4523483286644
 21
424.9312487504992
 31
0.0
  0
LINE
  5
65C
330
1F
100
AcDbEntity
  8
防火材
  6
Continuous
370
    13
100
AcDbLine
 10
600.3759862001595
 20
424.9312487504992
 30
0.0
 11
599.2996240716544
 21
424.9312487504992
 31
0.0
  0
LINE
  5
65D
330
1F
100
AcDbEntity
  8
防火材
  6
Continuous
370
    13
100
AcDbLine
 10
598.2232619431494
 20
424.9312487504992
 30
0.0
 11
597.1468998146443
 21
424.9312487504992
 31
0.0
  0
LINE
  5
65E
330
1F
100
AcDbEntity
  8
防火材
  6
Continuous
370
    13
100
AcDbLine
 10
596.0705376861393
 20
424.9312487504992
 30
0.0
 11
594.9941755576341
 21
424.9312487504992
 31
0.0
  0
LINE
  5
65F
330
1F
100
AcDbEntity
  8
防火材
  6
Continuous
370
    13
100
AcDbLine
 10
593.9178134291292
 20
424.9312487504992
 30
0.0
 11
592.8414513006242
 21
424.9312487504992
 31
0.0
  0
LINE
  5
660
330
1F
100
AcDbEntity
  8
防火材
  6
Continuous
370
    13
100
AcDbLine
 10
621.9417281807273
 20
399.2160466420712
 30
0.0
 11
620.8268666417549
 21
399.2160466420712
 31
0.0
  0
LINE
  5
661
330
1F
100
AcDbEntity
  8
防火材
  6
Continuous
370
    13
100
AcDbLine
 10
627.8813955736228
 20
418.2016204380504
 30
0.0
 11
619.5681346015476
 21
418.2016204380504
 31
0.0
  0
LINE
  5
662
330
1F
100
AcDbEntity
  8
防火材
  6
Continuous
370
    13
100
AcDbLine
 10
630.4585852824675
 20
406.5520656069085
 30
0.0
 11
622.7522656775745
 21
406.5520656069085
 31
0.0
  0
LINE
  5
663
330
1F
100
AcDbEntity
  8
防火材
  6
Continuous
370
    13
100
AcDbLine
 10
628.1481237896737
 20
416.3283690190991
 30
0.0
 11
619.7446411807154
 21
416.3283690190991
 31
0.0
  0
LINE
  5
664
330
1F
100
AcDbEntity
  8
防火材
  6
Continuous
370
    13
100
AcDbLine
 10
630.4585852825264
 20
412.2766905103864
 30
0.0
 11
621.1218265539764
 21
412.2766905103864
 31
0.0
  0
LINE
  5
665
330
1F
100
AcDbEntity
  8
防火材
  6
Continuous
370
    13
100
AcDbLine
 10
627.8813955735909
 20
416.3283690190991
 30
0.0
 11
619.7446411807154
 21
416.3283690190994
 31
0.0
  0
ARC
  5
666
330
1F
100
AcDbEntity
  8
防火材
  6
Continuous
370
    13
100
AcDbCircle
 10
627.3957985185611
 20
413.2457668144358
 30
0.0
 40
1.083934215202787
100
AcDbArc
 50
296.6151146439712
 51
63.38488535602884
  0
ARC
  5
667
330
1F
100
AcDbEntity
  8
防火材
  6
Continuous
370
    13
100
AcDbCircle
 10
627.1710272107538
 20
415.2716060688015
 30
0.0
 40
1.273330728454764
100
AcDbArc
 50
303.9094538759363
 51
56.090546122071
  0
ARC
  5
668
330
1F
100
AcDbEntity
  8
防火材
  6
Continuous
370
    13
100
AcDbCircle
 10
628.5796283700642
 20
415.2716060687777
 30
0.0
 40
1.266600557091795
100
AcDbArc
 50
123.4538536403837
 51
236.5461463596235
  0
ARC
  5
669
330
1F
100
AcDbEntity
  8
防火材
  6
Continuous
370
    13
100
AcDbCircle
 10
629.5817538634473
 20
407.9638861721926
 30
0.0
 40
1.66194784693741
100
AcDbArc
 50
301.8429417089371
 51
58.15705829106284
  0
ARC
  5
66A
330
1F
100
AcDbEntity
  8
防火材
  6
Continuous
370
    13
100
AcDbCircle
 10
629.0091299440426
 20
410.8261986239608
 30
0.0
 40
2.050572478808087
100
AcDbArc
 50
314.9795203767652
 51
45.02047962178165
  0
ARC
  5
66B
330
1F
100
AcDbEntity
  8
防火材
  6
Continuous
370
    13
100
AcDbCircle
 10
631.8888760545465
 20
410.8261986239309
 30
0.0
 40
2.037071035910225
100
AcDbArc
 50
134.5982273702158
 51
225.4017726297772
  0
ARC
  5
66C
330
1F
100
AcDbEntity
  8
防火材
  6
Continuous
370
    13
100
AcDbCircle
 10
627.1732665860095
 20
404.7295915231202
 30
0.0
 40
0.9323924426608211
100
AcDbArc
 50
319.4179592863028
 51
40.58204071369718
  0
ARC
  5
66D
330
1F
100
AcDbEntity
  8
防火材
  6
Continuous
370
    13
100
AcDbCircle
 10
626.5484660995883
 20
405.9441060799332
 30
0.0
 40
1.465030978885537
100
AcDbArc
 50
335.4819012485369
 51
24.51809874800466
  0
ARC
  5
66E
330
1F
100
AcDbEntity
  8
防火材
  6
Continuous
370
    13
100
AcDbCircle
 10
628.1697573155924
 20
405.9441060798814
 30
0.0
 40
0.672879841231784
100
AcDbArc
 50
115.3754885129093
 51
244.6245114870907
  0
LINE
  5
66F
330
1F
100
AcDbEntity
  8
防火材
  6
Continuous
370
    13
100
AcDbLine
 10
627.8813955735533
 20
404.1230364933569
 30
0.0
 11
622.8339696739899
 21
404.1230364933569
 31
0.0
  0
ARC
  5
670
330
1F
100
AcDbEntity
  8
防火材
  6
Continuous
370
    13
100
AcDbCircle
 10
627.1710272107538
 20
417.144857487781
 30
0.0
 40
1.273330728454764
100
AcDbArc
 50
320.11695210978
 51
56.090546122071
  0
ARC
  5
671
330
1F
100
AcDbEntity
  8
防火材
  6
Continuous
370
    13
100
AcDbCircle
 10
628.5796283700642
 20
417.1448574877572
 30
0.0
 40
1.266600557091795
100
AcDbArc
 50
123.4538536403837
 51
220.1379251059533
  0
LINE
  5
672
330
1F
100
AcDbEntity
  8
防火材
  6
Continuous
370
    13
100
AcDbLine
 10
617.5977802562398
 20
424.9312487504992
 30
0.0
 11
617.5977802562398
 21
399.2160466420712
 31
0.0
  0
LINE
  5
673
330
1F
100
AcDbEntity
  8
防火材
  6
Continuous
370
    13
100
AcDbLine
 10
616.5214181277348
 20
424.9312487504992
 30
0.0
 11
616.5214181277348
 21
399.2160466420712
 31
0.0
  0
LINE
  5
674
330
1F
100
AcDbEntity
  8
防火材
  6
Continuous
370
    13
100
AcDbLine
 10
615.4450559992298
 20
424.9312487504992
 30
0.0
 11
615.4450559992298
 21
399.2160466420712
 31
0.0
  0
LINE
  5
675
330
1F
100
AcDbEntity
  8
防火材
  6
Continuous
370
    13
100
AcDbLine
 10
614.3686938707247
 20
424.9312487504992
 30
0.0
 11
614.3686938707247
 21
399.2160466420712
 31
0.0
  0
LINE
  5
676
330
1F
100
AcDbEntity
  8
防火材
  6
Continuous
370
    13
100
AcDbLine
 10
616.5214181277348
 20
424.6864746241806
 30
0.0
 11
615.4450559992298
 21
424.6864746241806
 31
0.0
  0
LINE
  5
677
330
1F
100
AcDbEntity
  8
防火材
  6
Continuous
370
    13
100
AcDbLine
 10
614.3686938707247
 20
424.6864746241806
 30
0.0
 11
613.2923317422197
 21
424.6864746241806
 31
0.0
  0
LINE
  5
678
330
1F
100
AcDbEntity
  8
防火材
  6
Continuous
370
    13
100
AcDbLine
 10
613.2923317422197
 20
424.9312487504992
 30
0.0
 11
613.2923317422197
 21
399.2160466420712
 31
0.0
  0
LINE
  5
679
330
1F
100
AcDbEntity
  8
防火材
  6
Continuous
370
    13
100
AcDbLine
 10
618.6741423847449
 20
424.6864746241806
 30
0.0
 11
617.5977802562398
 21
424.6864746241806
 31
0.0
  0
LINE
  5
67A
330
1F
100
AcDbEntity
  8
防火材
  6
Continuous
370
    13
100
AcDbLine
 10
618.6741423847449
 20
424.9312487504992
 30
0.0
 11
618.6741423847449
 21
399.2160466420712
 31
0.0
  0
LINE
  5
67B
330
1F
100
AcDbEntity
  8
防火材
  6
Continuous
370
    13
100
AcDbLine
 10
612.2159696137146
 20
424.931248750499
 30
0.0
 11
612.2159696137146
 21
399.2160466420711
 31
0.0
  0
LINE
  5
67C
330
1F
100
AcDbEntity
  8
防火材
  6
Continuous
370
    13
100
AcDbLine
 10
611.1396074852097
 20
424.931248750499
 30
0.0
 11
611.1396074852097
 21
399.2160466420711
 31
0.0
  0
LINE
  5
67D
330
1F
100
AcDbEntity
  8
防火材
  6
Continuous
370
    13
100
AcDbLine
 10
610.0632453567047
 20
424.931248750499
 30
0.0
 11
610.0632453567047
 21
399.2160466420711
 31
0.0
  0
LINE
  5
67E
330
1F
100
AcDbEntity
  8
防火材
  6
Continuous
370
    13
100
AcDbLine
 10
608.9868832281996
 20
424.931248750499
 30
0.0
 11
608.9868832281996
 21
399.2160466420711
 31
0.0
  0
LINE
  5
67F
330
1F
100
AcDbEntity
  8
防火材
  6
Continuous
370
    13
100
AcDbLine
 10
607.9105210996946
 20
424.931248750499
 30
0.0
 11
607.9105210996946
 21
399.2160466420711
 31
0.0
  0
LINE
  5
680
330
1F
100
AcDbEntity
  8
防火材
  6
Continuous
370
    13
100
AcDbLine
 10
606.8341589711896
 20
424.9312487504992
 30
0.0
 11
606.8341589711896
 21
399.2160466420712
 31
0.0
  0
LINE
  5
681
330
1F
100
AcDbEntity
  8
防火材
  6
Continuous
370
    13
100
AcDbLine
 10
605.7577968426845
 20
424.9312487504992
 30
0.0
 11
605.7577968426845
 21
399.2160466420712
 31
0.0
  0
LINE
  5
682
330
1F
100
AcDbEntity
  8
防火材
  6
Continuous
370
    13
100
AcDbLine
 10
604.6814347141795
 20
424.9312487504992
 30
0.0
 11
604.6814347141795
 21
399.2160466420712
 31
0.0
  0
LINE
  5
683
330
1F
100
AcDbEntity
  8
防火材
  6
Continuous
370
    13
100
AcDbLine
 10
603.6050725856745
 20
424.9312487504992
 30
0.0
 11
603.6050725856745
 21
399.2160466420712
 31
0.0
  0
LINE
  5
684
330
1F
100
AcDbEntity
  8
防火材
  6
Continuous
370
    13
100
AcDbLine
 10
602.5287104571694
 20
424.9312487504992
 30
0.0
 11
602.5287104571694
 21
399.2160466420712
 31
0.0
  0
LINE
  5
685
330
1F
100
AcDbEntity
  8
防火材
  6
Continuous
370
    13
100
AcDbLine
 10
610.0632453567047
 20
424.6864746241806
 30
0.0
 11
608.9868832281996
 21
424.6864746241806
 31
0.0
  0
LINE
  5
686
330
1F
100
AcDbEntity
  8
防火材
  6
Continuous
370
    13
100
AcDbLine
 10
607.9105210996946
 20
424.6864746241806
 30
0.0
 11
606.8341589711896
 21
424.6864746241806
 31
0.0
  0
LINE
  5
687
330
1F
100
AcDbEntity
  8
防火材
  6
Continuous
370
    13
100
AcDbLine
 10
612.2159696137146
 20
424.6864746241806
 30
0.0
 11
611.1396074852097
 21
424.6864746241806
 31
0.0
  0
LINE
  5
688
330
1F
100
AcDbEntity
  8
防火材
  6
Continuous
370
    13
100
AcDbLine
 10
603.6050725856745
 20
424.6864746241806
 30
0.0
 11
602.5287104571694
 21
424.6864746241806
 31
0.0
  0
LINE
  5
689
330
1F
100
AcDbEntity
  8
防火材
  6
Continuous
370
    13
100
AcDbLine
 10
605.7577968426845
 20
424.6864746241806
 30
0.0
 11
604.6814347141795
 21
424.6864746241806
 31
0.0
  0
LINE
  5
68A
330
1F
100
AcDbEntity
  8
防火材
  6
Continuous
370
    13
100
AcDbLine
 10
619.7505045132499
 20
424.9312487504992
 30
0.0
 11
618.674142384745
 21
424.9312487504992
 31
0.0
  0
LINE
  5
68B
330
1F
100
AcDbEntity
  8
防火材
  6
Continuous
370
    13
100
AcDbLine
 10
619.7505045132499
 20
424.9312487504992
 30
0.0
 11
619.7505045132499
 21
420.7114202521722
 31
0.0
  0
LINE
  5
68C
330
1F
100
AcDbEntity
  8
防火材
  6
Continuous
370
    13
100
AcDbLine
 10
619.7505045132499
 20
416.2934761945894
 30
0.0
 11
619.7505045132499
 21
399.2160466420713
 31
0.0
  0
LINE
  5
68D
330
1F
100
AcDbEntity
  8
防火材
  6
Continuous
370
    13
100
AcDbLine
 10
620.8268666417549
 20
424.6864746241807
 30
0.0
 11
619.7505045132499
 21
424.6864746241806
 31
0.0
  0
LINE
  5
68E
330
1F
100
AcDbEntity
  8
防火材
  6
Continuous
370
    13
100
AcDbLine
 10
620.8268666417549
 20
424.9312487504993
 30
0.0
 11
620.8268666417549
 21
424.1407218930355
 31
0.0
  0
LINE
  5
68F
330
1F
100
AcDbEntity
  8
防火材
  6
Continuous
370
    13
100
AcDbLine
 10
620.8268666417549
 20
412.8641745537262
 30
0.0
 11
620.8268666417549
 21
399.2160466420713
 31
0.0
  0
LINE
  5
690
330
1F
100
AcDbEntity
  8
防火材
  6
Continuous
370
    13
100
AcDbLine
 10
602.5287104571694
 20
424.9312487504992
 30
0.0
 11
601.4523483286644
 21
424.9312487504992
 31
0.0
  0
LINE
  5
691
330
1F
100
AcDbEntity
  8
防火材
  6
Continuous
370
    13
100
AcDbLine
 10
601.4523483286644
 20
424.9312487504992
 30
0.0
 11
601.4523483286644
 21
399.2160466420712
 31
0.0
  0
LINE
  5
692
330
1F
100
AcDbEntity
  8
防火材
  6
Continuous
370
    13
100
AcDbLine
 10
600.3759862001594
 20
424.9312487504992
 30
0.0
 11
600.3759862001594
 21
399.2160466420712
 31
0.0
  0
LINE
  5
693
330
1F
100
AcDbEntity
  8
防火材
  6
Continuous
370
    13
100
AcDbLine
 10
601.4523483286644
 20
424.6864746241806
 30
0.0
 11
600.3759862001594
 21
424.6864746241806
 31
0.0
  0
LINE
  5
694
330
1F
100
AcDbEntity
  8
防火材
  6
Continuous
370
    13
100
AcDbLine
 10
599.2996240716544
 20
424.9312487504992
 30
0.0
 11
599.2996240716544
 21
399.2160466420712
 31
0.0
  0
LINE
  5
695
330
1F
100
AcDbEntity
  8
防火材
  6
Continuous
370
    13
100
AcDbLine
 10
598.2232619431494
 20
424.9312487504992
 30
0.0
 11
598.2232619431494
 21
399.2160466420712
 31
0.0
  0
LINE
  5
696
330
1F
100
AcDbEntity
  8
防火材
  6
Continuous
370
    13
100
AcDbLine
 10
599.2996240716544
 20
424.6864746241806
 30
0.0
 11
598.2232619431494
 21
424.6864746241806
 31
0.0
  0
LINE
  5
697
330
1F
100
AcDbEntity
  8
防火材
  6
Continuous
370
    13
100
AcDbLine
 10
597.1468998146443
 20
424.9312487504992
 30
0.0
 11
597.1468998146443
 21
399.2160466420712
 31
0.0
  0
LINE
  5
698
330
1F
100
AcDbEntity
  8
防火材
  6
Continuous
370
    13
100
AcDbLine
 10
596.0705376861393
 20
424.9312487504992
 30
0.0
 11
596.0705376861393
 21
399.2160466420712
 31
0.0
  0
LINE
  5
699
330
1F
100
AcDbEntity
  8
防火材
  6
Continuous
370
    13
100
AcDbLine
 10
597.1468998146443
 20
424.6864746241806
 30
0.0
 11
596.0705376861393
 21
424.6864746241806
 31
0.0
  0
LINE
  5
69A
330
1F
100
AcDbEntity
  8
防火材
  6
Continuous
370
    13
100
AcDbLine
 10
594.9941755576343
 20
424.9312487504992
 30
0.0
 11
594.9941755576343
 21
399.2160466420712
 31
0.0
  0
LINE
  5
69B
330
1F
100
AcDbEntity
  8
防火材
  6
Continuous
370
    13
100
AcDbLine
 10
593.9178134291292
 20
424.9312487504992
 30
0.0
 11
593.9178134291292
 21
399.2160466420712
 31
0.0
  0
LINE
  5
69C
330
1F
100
AcDbEntity
  8
防火材
  6
Continuous
370
    13
100
AcDbLine
 10
594.9941755576343
 20
424.6864746241806
 30
0.0
 11
593.9178134291292
 21
424.6864746241806
 31
0.0
  0
LINE
  5
69D
330
1F
100
AcDbEntity
  8
防火材
  6
Continuous
370
    13
100
AcDbLine
 10
621.2324604791817
 20
399.2160466420717
 30
0.0
 11
620.8268666417549
 21
399.2160466420717
 31
0.0
  0
LINE
  5
69E
330
1F
100
AcDbEntity
  8
防火材
  6
Continuous
370
    13
100
AcDbLine
 10
619.7505045132499
 20
399.2160466420717
 30
0.0
 11
618.6741423847449
 21
399.2160466420717
 31
0.0
  0
LINE
  5
69F
330
1F
100
AcDbEntity
  8
防火材
  6
Continuous
370
    13
100
AcDbLine
 10
617.5977802562398
 20
399.2160466420717
 30
0.0
 11
616.5214181277349
 21
399.2160466420717
 31
0.0
  0
LINE
  5
6A0
330
1F
100
AcDbEntity
  8
防火材
  6
Continuous
370
    13
100
AcDbLine
 10
615.4450559992298
 20
399.2160466420717
 30
0.0
 11
614.3686938707247
 21
399.2160466420717
 31
0.0
  0
LINE
  5
6A1
330
1F
100
AcDbEntity
  8
防火材
  6
Continuous
370
    13
100
AcDbLine
 10
613.2923317422196
 20
399.2160466420717
 30
0.0
 11
612.2159696137146
 21
399.2160466420717
 31
0.0
  0
LINE
  5
6A2
330
1F
100
AcDbEntity
  8
防火材
  6
Continuous
370
    13
100
AcDbLine
 10
611.1396074852097
 20
399.2160466420717
 30
0.0
 11
610.0632453567047
 21
399.2160466420717
 31
0.0
  0
LINE
  5
6A3
330
1F
100
AcDbEntity
  8
防火材
  6
Continuous
370
    13
100
AcDbLine
 10
608.9868832281998
 20
399.2160466420717
 30
0.0
 11
607.9105210996946
 21
399.2160466420717
 31
0.0
  0
LINE
  5
6A4
330
1F
100
AcDbEntity
  8
防火材
  6
Continuous
370
    13
100
AcDbLine
 10
606.8341589711894
 20
399.2160466420717
 30
0.0
 11
605.7577968426845
 21
399.2160466420716
 31
0.0
  0
LINE
  5
6A5
330
1F
100
AcDbEntity
  8
防火材
  6
Continuous
370
    13
100
AcDbLine
 10
604.6814347141795
 20
399.2160466420716
 30
0.0
 11
603.6050725856745
 21
399.2160466420717
 31
0.0
  0
LINE
  5
6A6
330
1F
100
AcDbEntity
  8
防火材
  6
Continuous
370
    13
100
AcDbLine
 10
602.5287104571695
 20
399.2160466420717
 30
0.0
 11
601.4523483286644
 21
399.2160466420717
 31
0.0
  0
LINE
  5
6A7
330
1F
100
AcDbEntity
  8
防火材
  6
Continuous
370
    13
100
AcDbLine
 10
600.3759862001595
 20
399.2160466420717
 30
0.0
 11
599.2996240716544
 21
399.2160466420717
 31
0.0
  0
LINE
  5
6A8
330
1F
100
AcDbEntity
  8
防火材
  6
Continuous
370
    13
100
AcDbLine
 10
598.2232619431494
 20
399.2160466420717
 30
0.0
 11
597.1468998146443
 21
399.2160466420717
 31
0.0
  0
LINE
  5
6A9
330
1F
100
AcDbEntity
  8
防火材
  6
Continuous
370
    13
100
AcDbLine
 10
596.0705376861393
 20
399.2160466420717
 30
0.0
 11
594.9941755576341
 21
399.2160466420717
 31
0.0
  0
LINE
  5
6AA
330
1F
100
AcDbEntity
  8
防火材
  6
Continuous
370
    13
100
AcDbLine
 10
593.9178134291292
 20
399.2160466420717
 30
0.0
 11
592.8414513006242
 21
399.2160466420717
 31
0.0
  0
LINE
  5
6AB
330
1F
100
AcDbEntity
  8
防火材
  6
Continuous
370
    13
100
AcDbLine
 10
616.5214181277348
 20
399.4608207683902
 30
0.0
 11
615.4450559992298
 21
399.4608207683902
 31
0.0
  0
LINE
  5
6AC
330
1F
100
AcDbEntity
  8
防火材
  6
Continuous
370
    13
100
AcDbLine
 10
614.3686938707247
 20
399.4608207683902
 30
0.0
 11
613.2923317422197
 21
399.4608207683902
 31
0.0
  0
LINE
  5
6AD
330
1F
100
AcDbEntity
  8
防火材
  6
Continuous
370
    13
100
AcDbLine
 10
618.6741423847449
 20
399.4608207683902
 30
0.0
 11
617.5977802562398
 21
399.4608207683902
 31
0.0
  0
LINE
  5
6AE
330
1F
100
AcDbEntity
  8
防火材
  6
Continuous
370
    13
100
AcDbLine
 10
610.0632453567047
 20
399.4608207683902
 30
0.0
 11
608.9868832281996
 21
399.4608207683902
 31
0.0
  0
LINE
  5
6AF
330
1F
100
AcDbEntity
  8
防火材
  6
Continuous
370
    13
100
AcDbLine
 10
607.9105210996946
 20
399.4608207683902
 30
0.0
 11
606.8341589711896
 21
399.4608207683902
 31
0.0
  0
LINE
  5
6B0
330
1F
100
AcDbEntity
  8
防火材
  6
Continuous
370
    13
100
AcDbLine
 10
612.2159696137146
 20
399.4608207683902
 30
0.0
 11
611.1396074852097
 21
399.4608207683902
 31
0.0
  0
LINE
  5
6B1
330
1F
100
AcDbEntity
  8
防火材
  6
Continuous
370
    13
100
AcDbLine
 10
603.6050725856745
 20
399.4608207683902
 30
0.0
 11
602.5287104571694
 21
399.4608207683902
 31
0.0
  0
LINE
  5
6B2
330
1F
100
AcDbEntity
  8
防火材
  6
Continuous
370
    13
100
AcDbLine
 10
605.7577968426845
 20
399.4608207683902
 30
0.0
 11
604.6814347141795
 21
399.4608207683902
 31
0.0
  0
LINE
  5
6B3
330
1F
100
AcDbEntity
  8
防火材
  6
Continuous
370
    13
100
AcDbLine
 10
619.7505045132499
 20
399.2160466420716
 30
0.0
 11
618.674142384745
 21
399.2160466420717
 31
0.0
  0
LINE
  5
6B4
330
1F
100
AcDbEntity
  8
防火材
  6
Continuous
370
    13
100
AcDbLine
 10
620.8268666417549
 20
399.4608207683901
 30
0.0
 11
619.7505045132499
 21
399.4608207683902
 31
0.0
  0
LINE
  5
6B5
330
1F
100
AcDbEntity
  8
防火材
  6
Continuous
370
    13
100
AcDbLine
 10
620.8268666417549
 20
399.2160466420715
 30
0.0
 11
620.8268666417549
 21
400.0065734995352
 31
0.0
  0
LINE
  5
6B6
330
1F
100
AcDbEntity
  8
防火材
  6
Continuous
370
    13
100
AcDbLine
 10
602.5287104571694
 20
399.2160466420716
 30
0.0
 11
601.4523483286644
 21
399.2160466420717
 31
0.0
  0
LINE
  5
6B7
330
1F
100
AcDbEntity
  8
防火材
  6
Continuous
370
    13
100
AcDbLine
 10
601.4523483286644
 20
399.4608207683902
 30
0.0
 11
600.3759862001594
 21
399.4608207683902
 31
0.0
  0
LINE
  5
6B8
330
1F
100
AcDbEntity
  8
防火材
  6
Continuous
370
    13
100
AcDbLine
 10
599.2996240716544
 20
399.4608207683902
 30
0.0
 11
598.2232619431494
 21
399.4608207683902
 31
0.0
  0
LINE
  5
6B9
330
1F
100
AcDbEntity
  8
防火材
  6
Continuous
370
    13
100
AcDbLine
 10
597.1468998146443
 20
399.4608207683902
 30
0.0
 11
596.0705376861393
 21
399.4608207683902
 31
0.0
  0
LINE
  5
6BA
330
1F
100
AcDbEntity
  8
防火材
  6
Continuous
370
    13
100
AcDbLine
 10
594.9941755576343
 20
399.4608207683902
 30
0.0
 11
593.9178134291292
 21
399.4608207683902
 31
0.0
  0
LINE
  5
6BB
330
1F
100
AcDbEntity
  8
防火材
  6
Continuous
370
    13
100
AcDbLine
 10
591.7650891721191
 20
424.9312487504993
 30
0.0
 11
590.6887270436142
 21
424.9312487504993
 31
0.0
  0
LINE
  5
6BC
330
1F
100
AcDbEntity
  8
防火材
  6
Continuous
370
    13
100
AcDbLine
 10
589.6123649151092
 20
424.9312487504993
 30
0.0
 11
588.5360027866041
 21
424.9312487504993
 31
0.0
  0
LINE
  5
6BD
330
1F
100
AcDbEntity
  8
防火材
  6
Continuous
370
    13
100
AcDbLine
 10
587.4596406580992
 20
424.9312487504993
 30
0.0
 11
586.3832785295941
 21
424.9312487504993
 31
0.0
  0
LINE
  5
6BE
330
1F
100
AcDbEntity
  8
防火材
  6
Continuous
370
    13
100
AcDbLine
 10
585.3069164010892
 20
424.9312487504993
 30
0.0
 11
584.230554272584
 21
424.9312487504993
 31
0.0
  0
LINE
  5
6BF
330
1F
100
AcDbEntity
  8
防火材
  6
Continuous
370
    13
100
AcDbLine
 10
583.154192144079
 20
424.9312487504993
 30
0.0
 11
582.077830015574
 21
424.9312487504993
 31
0.0
  0
LINE
  5
6C0
330
1F
100
AcDbEntity
  8
防火材
  6
Continuous
370
    13
100
AcDbLine
 10
581.001467887069
 20
424.9312487504993
 30
0.0
 11
579.9251057585638
 21
424.9312487504992
 31
0.0
  0
LINE
  5
6C1
330
1F
100
AcDbEntity
  8
防火材
  6
Continuous
370
    13
100
AcDbLine
 10
578.8487436300589
 20
424.9312487504992
 30
0.0
 11
577.7723815015539
 21
424.9312487504992
 31
0.0
  0
LINE
  5
6C2
330
1F
100
AcDbEntity
  8
防火材
  6
Continuous
370
    13
100
AcDbLine
 10
592.8414513006242
 20
424.9312487504992
 30
0.0
 11
592.8414513006242
 21
399.2160466420712
 31
0.0
  0
LINE
  5
6C3
330
1F
100
AcDbEntity
  8
防火材
  6
Continuous
370
    13
100
AcDbLine
 10
591.7650891721192
 20
424.9312487504993
 30
0.0
 11
591.7650891721192
 21
399.2160466420713
 31
0.0
  0
LINE
  5
6C4
330
1F
100
AcDbEntity
  8
防火材
  6
Continuous
370
    13
100
AcDbLine
 10
590.6887270436142
 20
424.9312487504993
 30
0.0
 11
590.6887270436142
 21
399.2160466420713
 31
0.0
  0
LINE
  5
6C5
330
1F
100
AcDbEntity
  8
防火材
  6
Continuous
370
    13
100
AcDbLine
 10
589.6123649151092
 20
424.9312487504993
 30
0.0
 11
589.6123649151092
 21
399.2160466420713
 31
0.0
  0
LINE
  5
6C6
330
1F
100
AcDbEntity
  8
防火材
  6
Continuous
370
    13
100
AcDbLine
 10
588.5360027866041
 20
424.9312487504993
 30
0.0
 11
588.5360027866041
 21
399.2160466420713
 31
0.0
  0
LINE
  5
6C7
330
1F
100
AcDbEntity
  8
防火材
  6
Continuous
370
    13
100
AcDbLine
 10
587.4596406580991
 20
424.9312487504992
 30
0.0
 11
587.4596406580991
 21
399.2160466420713
 31
0.0
  0
LINE
  5
6C8
330
1F
100
AcDbEntity
  8
防火材
  6
Continuous
370
    13
100
AcDbLine
 10
592.8414513006242
 20
424.6864746241807
 30
0.0
 11
591.7650891721192
 21
424.6864746241806
 31
0.0
  0
LINE
  5
6C9
330
1F
100
AcDbEntity
  8
防火材
  6
Continuous
370
    13
100
AcDbLine
 10
588.5360027866041
 20
424.6864746241807
 30
0.0
 11
587.4596406580991
 21
424.6864746241807
 31
0.0
  0
LINE
  5
6CA
330
1F
100
AcDbEntity
  8
防火材
  6
Continuous
370
    13
100
AcDbLine
 10
590.6887270436142
 20
424.6864746241807
 30
0.0
 11
589.6123649151092
 21
424.6864746241807
 31
0.0
  0
LINE
  5
6CB
330
1F
100
AcDbEntity
  8
防火材
  6
Continuous
370
    13
100
AcDbLine
 10
587.4596406580991
 20
424.9312487504993
 30
0.0
 11
586.3832785295941
 21
424.9312487504993
 31
0.0
  0
LINE
  5
6CC
330
1F
100
AcDbEntity
  8
防火材
  6
Continuous
370
    13
100
AcDbLine
 10
586.3832785295941
 20
424.9312487504993
 30
0.0
 11
586.3832785295941
 21
399.2160466420713
 31
0.0
  0
LINE
  5
6CD
330
1F
100
AcDbEntity
  8
防火材
  6
Continuous
370
    13
100
AcDbLine
 10
585.306916401089
 20
424.9312487504992
 30
0.0
 11
585.306916401089
 21
399.2160466420713
 31
0.0
  0
LINE
  5
6CE
330
1F
100
AcDbEntity
  8
防火材
  6
Continuous
370
    13
100
AcDbLine
 10
586.3832785295941
 20
424.6864746241807
 30
0.0
 11
585.306916401089
 21
424.6864746241807
 31
0.0
  0
LINE
  5
6CF
330
1F
100
AcDbEntity
  8
防火材
  6
Continuous
370
    13
100
AcDbLine
 10
584.230554272584
 20
424.9312487504993
 30
0.0
 11
584.230554272584
 21
399.2160466420713
 31
0.0
  0
LINE
  5
6D0
330
1F
100
AcDbEntity
  8
防火材
  6
Continuous
370
    13
100
AcDbLine
 10
583.154192144079
 20
424.9312487504992
 30
0.0
 11
583.154192144079
 21
399.2160466420713
 31
0.0
  0
LINE
  5
6D1
330
1F
100
AcDbEntity
  8
防火材
  6
Continuous
370
    13
100
AcDbLine
 10
584.230554272584
 20
424.6864746241807
 30
0.0
 11
583.154192144079
 21
424.6864746241807
 31
0.0
  0
LINE
  5
6D2
330
1F
100
AcDbEntity
  8
防火材
  6
Continuous
370
    13
100
AcDbLine
 10
582.077830015574
 20
424.9312487504993
 30
0.0
 11
582.077830015574
 21
399.2160466420713
 31
0.0
  0
LINE
  5
6D3
330
1F
100
AcDbEntity
  8
防火材
  6
Continuous
370
    13
100
AcDbLine
 10
581.001467887069
 20
424.9312487504992
 30
0.0
 11
581.001467887069
 21
399.2160466420713
 31
0.0
  0
LINE
  5
6D4
330
1F
100
AcDbEntity
  8
防火材
  6
Continuous
370
    13
100
AcDbLine
 10
582.077830015574
 20
424.6864746241807
 30
0.0
 11
581.001467887069
 21
424.6864746241807
 31
0.0
  0
LINE
  5
6D5
330
1F
100
AcDbEntity
  8
防火材
  6
Continuous
370
    13
100
AcDbLine
 10
579.925105758564
 20
424.9312487504993
 30
0.0
 11
579.925105758564
 21
399.2160466420713
 31
0.0
  0
LINE
  5
6D6
330
1F
100
AcDbEntity
  8
防火材
  6
Continuous
370
    13
100
AcDbLine
 10
578.8487436300589
 20
424.9312487504992
 30
0.0
 11
578.8487436300589
 21
399.2160466420713
 31
0.0
  0
LINE
  5
6D7
330
1F
100
AcDbEntity
  8
防火材
  6
Continuous
370
    13
100
AcDbLine
 10
579.925105758564
 20
424.6864746241807
 30
0.0
 11
578.8487436300589
 21
424.6864746241807
 31
0.0
  0
LINE
  5
6D8
330
1F
100
AcDbEntity
  8
防火材
  6
Continuous
370
    13
100
AcDbLine
 10
591.7650891721191
 20
399.2160466420717
 30
0.0
 11
590.6887270436142
 21
399.2160466420717
 31
0.0
  0
LINE
  5
6D9
330
1F
100
AcDbEntity
  8
防火材
  6
Continuous
370
    13
100
AcDbLine
 10
589.6123649151092
 20
399.2160466420717
 30
0.0
 11
588.5360027866041
 21
399.2160466420717
 31
0.0
  0
LINE
  5
6DA
330
1F
100
AcDbEntity
  8
防火材
  6
Continuous
370
    13
100
AcDbLine
 10
587.4596406580992
 20
399.2160466420717
 30
0.0
 11
586.3832785295941
 21
399.2160466420718
 31
0.0
  0
LINE
  5
6DB
330
1F
100
AcDbEntity
  8
防火材
  6
Continuous
370
    13
100
AcDbLine
 10
585.3069164010892
 20
399.2160466420718
 30
0.0
 11
584.230554272584
 21
399.2160466420718
 31
0.0
  0
LINE
  5
6DC
330
1F
100
AcDbEntity
  8
防火材
  6
Continuous
370
    13
100
AcDbLine
 10
583.154192144079
 20
399.2160466420718
 30
0.0
 11
582.077830015574
 21
399.2160466420718
 31
0.0
  0
LINE
  5
6DD
330
1F
100
AcDbEntity
  8
防火材
  6
Continuous
370
    13
100
AcDbLine
 10
581.001467887069
 20
399.2160466420718
 30
0.0
 11
579.9251057585638
 21
399.2160466420718
 31
0.0
  0
LINE
  5
6DE
330
1F
100
AcDbEntity
  8
防火材
  6
Continuous
370
    13
100
AcDbLine
 10
578.8487436300589
 20
399.2160466420718
 30
0.0
 11
577.7723815015539
 21
399.2160466420718
 31
0.0
  0
LINE
  5
6DF
330
1F
100
AcDbEntity
  8
防火材
  6
Continuous
370
    13
100
AcDbLine
 10
592.8414513006242
 20
399.4608207683904
 30
0.0
 11
591.7650891721192
 21
399.4608207683904
 31
0.0
  0
LINE
  5
6E0
330
1F
100
AcDbEntity
  8
防火材
  6
Continuous
370
    13
100
AcDbLine
 10
588.5360027866041
 20
399.4608207683903
 30
0.0
 11
587.4596406580991
 21
399.4608207683904
 31
0.0
  0
LINE
  5
6E1
330
1F
100
AcDbEntity
  8
防火材
  6
Continuous
370
    13
100
AcDbLine
 10
590.6887270436142
 20
399.4608207683903
 30
0.0
 11
589.6123649151092
 21
399.4608207683904
 31
0.0
  0
LINE
  5
6E2
330
1F
100
AcDbEntity
  8
防火材
  6
Continuous
370
    13
100
AcDbLine
 10
587.4596406580991
 20
399.2160466420717
 30
0.0
 11
586.3832785295941
 21
399.2160466420717
 31
0.0
  0
LINE
  5
6E3
330
1F
100
AcDbEntity
  8
防火材
  6
Continuous
370
    13
100
AcDbLine
 10
586.3832785295941
 20
399.4608207683903
 30
0.0
 11
585.306916401089
 21
399.4608207683904
 31
0.0
  0
LINE
  5
6E4
330
1F
100
AcDbEntity
  8
防火材
  6
Continuous
370
    13
100
AcDbLine
 10
584.230554272584
 20
399.4608207683903
 30
0.0
 11
583.154192144079
 21
399.4608207683904
 31
0.0
  0
LINE
  5
6E5
330
1F
100
AcDbEntity
  8
防火材
  6
Continuous
370
    13
100
AcDbLine
 10
582.077830015574
 20
399.4608207683903
 30
0.0
 11
581.001467887069
 21
399.4608207683904
 31
0.0
  0
LINE
  5
6E6
330
1F
100
AcDbEntity
  8
防火材
  6
Continuous
370
    13
100
AcDbLine
 10
579.925105758564
 20
399.4608207683903
 30
0.0
 11
578.8487436300589
 21
399.4608207683904
 31
0.0
  0
LINE
  5
6E7
330
1F
100
AcDbEntity
  8
防火材
  6
Continuous
370
    13
100
AcDbLine
 10
577.7723815015539
 20
424.9312487504992
 30
0.0
 11
577.7723815015539
 21
399.2160466420713
 31
0.0
  0
LINE
  5
6E8
330
1F
100
AcDbEntity
  8
防火材
  6
Continuous
370
    13
100
AcDbLine
 10
577.7723815015539
 20
424.6864746241808
 30
0.0
 11
577.0314140839534
 21
424.6864746241808
 31
0.0
  0
LINE
  5
6E9
330
1F
100
AcDbEntity
  8
防火材
  6
Continuous
370
    13
100
AcDbLine
 10
577.7723815015539
 20
399.4608207683904
 30
0.0
 11
577.0314140839534
 21
399.4608207683905
 31
0.0
  0
LINE
  5
6EA
330
1F
100
AcDbEntity
  8
防火材
  6
Continuous
370
    13
100
AcDbLine
 10
532.1210999871798
 20
410.2908254902449
 30
0.0
 11
532.1210999871798
 21
399.2160466420713
 31
0.0
  0
LINE
  5
6EB
330
1F
100
AcDbEntity
  8
防火材
  6
Continuous
370
    13
100
AcDbLine
 10
622.13638287879
 20
410.2908254902446
 30
0.0
 11
622.13638287879
 21
399.2160466420709
 31
0.0
  0
MTEXT
  5
769
330
1F
100
AcDbEntity
  8
文字
  6
Continuous
100
AcDbMText
 10
537.6482181225451
 20
297.2171819567035
 30
0.0
 40
2.0
 41
60.7835669328564
 46
0.0
 71
     1
 72
     5
  1
{\fMS PGothic|b0|i0|c128|p50;ＣＥＴ ２２㎟（６００Ｖ）以下}
 73
     1
 44
0.75
101
Embedded Object
 70
     1
 10
1.0
 20
0.0
 30
0.0
 11
537.6482181225451
 21
297.2171819567035
 31
0.0
 40
60.7835669328564
 41
0.0
 42
30.15909090909091
 43
2.670454545454545
 71
     2
 72
     1
 44
60.7835669328564
 45
0.8849620939533352
 73
     0
 74
     0
 46
2.569124224878326
  0
ENDSEC
  0
SECTION
  2
OBJECTS
  0
DICTIONARY
  5
C
330
0
100
AcDbDictionary
281
     1
  3
ACAD_CIP_PREVIOUS_PRODUCT_INFO
350
216
  3
ACAD_COLOR
350
6B
  3
ACAD_DETAILVIEWSTYLE
350
21B
  3
ACAD_GROUP
350
D
  3
ACAD_LAYOUT
350
1A
  3
ACAD_MATERIAL
350
6A
  3
ACAD_MLEADERSTYLE
350
12D
  3
ACAD_MLINESTYLE
350
17
  3
ACAD_PLOTSETTINGS
350
19
  3
ACAD_PLOTSTYLENAME
350
E
  3
ACAD_SCALELIST
350
10C
  3
ACAD_SECTIONVIEWSTYLE
350
219
  3
ACAD_TABLESTYLE
350
7E
  3
ACAD_VISUALSTYLE
350
EF
  3
ACDB_RECOMPOSE_DATA
350
88B
  3
AcDbVariableDictionary
350
5E
  0
DICTIONARY
  5
1FF
330
2
100
AcDbDictionary
280
     1
281
     1
  3
ACAD_LAYERSTATES
360
200
  0
DICTIONARY
  5
13C
330
10
100
AcDbDictionary
280
     1
281
     1
  0
DICTIONARY
  5
2A8
330
2A7
100
AcDbDictionary
280
     1
281
     1
  0
DICTIONARY
  5
1CE
330
1F
100
AcDbDictionary
280
     1
281
     1
  0
XRECORD
  5
216
102
{ACAD_REACTORS
330
C
102
}
330
C
100
AcDbXrecord
280
     1
300
ACD
300
2023
300

  0
DICTIONARY
  5
6B
102
{ACAD_REACTORS
330
C
102
}
330
C
100
AcDbDictionary
281
     1
  0
DICTIONARY
  5
21B
102
{ACAD_REACTORS
330
C
102
}
330
C
100
AcDbDictionary
281
     1
  3
Imperial24
350
2B3
  3
Metric50
350
21C
  0
DICTIONARY
  5
D
102
{ACAD_REACTORS
330
C
102
}
330
C
100
AcDbDictionary
281
     1
  0
DICTIONARY
  5
1A
102
{ACAD_REACTORS
330
C
102
}
330
C
100
AcDbDictionary
281
     1
  3
Model
350
22
  3
レイアウト1
350
D3
  3
レイアウト2
350
D7
  0
DICTIONARY
  5
6A
102
{ACAD_REACTORS
330
C
102
}
330
C
100
AcDbDictionary
281
     1
  3
ByBlock
350
ED
  3
ByLayer
350
EC
  3
Global
350
EE
  0
DICTIONARY
  5
12D
102
{ACAD_REACTORS
330
C
102
}
330
C
100
AcDbDictionary
281
     1
  3
Annotative
350
13B
  3
Standard
350
12E
  0
DICTIONARY
  5
17
102
{ACAD_REACTORS
330
C
102
}
330
C
100
AcDbDictionary
281
     1
  3
Standard
350
18
  0
DICTIONARY
  5
19
102
{ACAD_REACTORS
330
C
102
}
330
C
100
AcDbDictionary
281
     1
  3
セットアップ1
350
721
  0
ACDBDICTIONARYWDFLT
  5
E
102
{ACAD_REACTORS
330
C
102
}
330
C
100
AcDbDictionary
281
     1
  3
Normal
350
F
100
AcDbDictionaryWithDefault
340
F
  0
DICTIONARY
  5
10C
102
{ACAD_REACTORS
330
C
102
}
330
C
100
AcDbDictionary
281
     1
  3
A0
350
10D
  3
A1
350
1BE
  3
A2
350
1BF
  3
A3
350
1C0
  3
A4
350
1C1
  3
A5
350
1C2
  3
A6
350
1C3
  3
A7
350
1C4
  3
A8
350
1C5
  3
A9
350
1C6
  3
B0
350
1C7
  3
B1
350
1C8
  3
B2
350
1C9
  3
B3
350
1CA
  3
B4
350
1CB
  3
B5
350
1CC
  3
B6
350
1CD
  0
DICTIONARY
  5
219
102
{ACAD_REACTORS
330
C
102
}
330
C
100
AcDbDictionary
281
     1
  3
Imperial24
350
2B2
  3
Metric50
350
21A
  0
DICTIONARY
  5
7E
102
{ACAD_REACTORS
330
C
102
}
330
C
100
AcDbDictionary
281
     1
  3
Standard
350
7F
  0
DICTIONARY
  5
EF
102
{ACAD_REACTORS
330
C
102
}
330
C
100
AcDbDictionary
281
     1
  3
2dWireframe
350
F5
  3
Basic
350
F4
  3
Brighten
350
FB
  3
ColorChange
350
FF
  3
Conceptual
350
F8
  3
Dim
350
FA
  3
EdgeColorOff
350
1E6
  3
Facepattern
350
FE
  3
Flat
350
F0
  3
FlatWithEdges
350
F1
  3
Gouraud
350
F2
  3
GouraudWithEdges
350
F3
  3
Hidden
350
F7
  3
JitterOff
350
1E4
  3
Linepattern
350
FD
  3
OverhangOff
350
1E5
  3
Realistic
350
F9
  3
Shaded
350
1F3
  3
Shaded with edges
350
1F2
  3
Shades of Gray
350
1EF
  3
Sketchy
350
1F0
  3
Thicken
350
FC
  3
Wireframe
350
F6
  3
X-Ray
350
1F1
  0
XRECORD
  5
88B
102
{ACAD_REACTORS
330
C
102
}
330
C
100
AcDbXrecord
280
     1
 90
        1
330
7F
  0
DICTIONARY
  5
5E
102
{ACAD_REACTORS
330
C
102
}
330
C
100
AcDbDictionary
281
     1
  3
CANNOSCALE
350
146
  3
CENTEREXE
350
259
  3
CENTERLTYPEFILE
350
25A
  3
CMLEADERSTYLE
350
145
  3
CTABLESTYLE
350
84
  3
CVIEWDETAILSTYLE
350
227
  3
CVIEWSECTIONSTYLE
350
228
  3
DIMASSOC
350
5F
  3
HIDETEXT
350
63
  3
LAYEREVAL
350
1AE
  3
LAYERNOTIFY
350
1AF
  0
DICTIONARY
  5
200
102
{ACAD_REACTORS
330
1FF
102
}
330
1FF
100
AcDbDictionary
281
     1
  0
ACDBDETAILVIEWSTYLE
  5
2B3
102
{ACAD_REACTORS
330
21B
102
}
330
21B
100
AcDbModelDocViewStyle
 70
     0
  3
Imperial24
290
     0
300
Imperial24
 90
        0
100
AcDbDetailViewStyle
 70
     0
 71
     0
 90
        3
 71
     1
340
11
 62
   256
 40
0.24
340
0
 62
   256
 40
0.24
300

 40
0.36
280
     3
 71
     2
340
16
 90
       25
 62
   256
 71
     3
340
11
 62
   256
 40
0.24
 90
        1
 40
0.75
 90
        1
300
%<\AcVar ViewType \f "%tc1">% %<\AcVar ViewDetailId>%\PSCALE %<\AcVar ViewScale \f "%sn">%
 71
     4
340
16
 90
       25
 62
   256
340
16
 90
       25
 62
   256
280
     0
  0
ACDBDETAILVIEWSTYLE
  5
21C
102
{ACAD_REACTORS
330
21B
102
}
330
21B
100
AcDbModelDocViewStyle
 70
     0
  3
Metric50
290
     0
300
Metric50
 90
        0
100
AcDbDetailViewStyle
 70
     0
 71
     0
 90
        3
 71
     1
340
11
 62
   256
 40
5.0
340
0
 62
   256
 40
5.0
300

 40
0.0
280
     1
 71
     2
340
16
 90
       25
 62
   256
 71
     3
340
11
 62
   256
 40
5.0
 90
        0
 40
15.0
 90
        1
300
%<\AcVar ViewDetailId>% (%<\AcVar ViewScale \f "%sn">%)
 71
     4
340
16
 90
       25
 62
   256
340
16
 90
       25
 62
   256
280
     0
  0
LAYOUT
  5
22
102
{ACAD_XDICTIONARY
360
205
102
}
102
{ACAD_REACTORS
330
1A
102
}
330
1A
100
AcDbPlotSettings
  1
セットアップ1
  2
Adobe PDF
  4
A4
  6

 40
0.0
 41
0.010498046875
 42
0.0901641845703125
 43
0.0
 44
210.0
 45
297.0
 46
0.0
 47
0.0585099356515002
 48
440.4720142505939
 49
215.6236590285641
140
650.4720142505939
141
512.6236590285641
142
1.0
143
1.000429537683263
 70
 11956
 72
     1
 73
     0
 74
     4
  7

 75
     0
147
0.9995706467401413
 76
     0
 77
     2
 78
   300
148
-440.4720142505939
149
-215.6236590285641
100
AcDbLayout
  1
Model
 70
     1
 71
     0
 10
0.0
 20
0.0
 11
12.0
 21
9.0
 12
0.0
 22
0.0
 32
0.0
 14
0.0
 24
0.0
 34
0.0
 15
0.0
 25
0.0
 35
0.0
146
0.0
 13
0.0
 23
0.0
 33
0.0
 16
1.0
 26
0.0
 36
0.0
 17
0.0
 27
1.0
 37
0.0
 76
     0
330
1F
331
EA
1001
ACAD_PSEXT
1000
Adobe PDF
1000
Adobe PDF Converter
1000
Documents\*.pdf
1000

1070
     0
  0
LAYOUT
  5
D3
102
{ACAD_REACTORS
330
1A
102
}
330
1A
100
AcDbPlotSettings
  1

  2
C:\Documents and Settings\basas\Application Data\Autodesk\AutoCAD 2005\R16.1\enu\plotters\Default Windows System Printer.pc3
  4

  6

 40
0.0
 41
0.0
 42
0.0
 43
0.0
 44
0.0
 45
0.0
 46
0.0
 47
0.0
 48
0.0
 49
0.0
140
0.0
141
0.0
142
1.0
143
1.0
 70
   688
 72
     0
 73
     0
 74
     5
  7

 75
    16
147
1.0
 76
     0
 77
     2
 78
   300
148
0.0
149
0.0
100
AcDbLayout
  1
レイアウト1
 70
     1
 71
     1
 10
0.0
 20
0.0
 11
12.0
 21
9.0
 12
0.0
 22
0.0
 32
0.0
 14
0.0
 24
0.0
 34
0.0
 15
0.0
 25
0.0
 35
0.0
146
0.0
 13
0.0
 23
0.0
 33
0.0
 16
1.0
 26
0.0
 36
0.0
 17
0.0
 27
1.0
 37
0.0
 76
     0
330
D2
  0
LAYOUT
  5
D7
102
{ACAD_REACTORS
330
1A
102
}
330
1A
100
AcDbPlotSettings
  1

  2
C:\Documents and Settings\basas\Application Data\Autodesk\AutoCAD 2005\R16.1\enu\plotters\Default Windows System Printer.pc3
  4

  6

 40
0.0
 41
0.0
 42
0.0
 43
0.0
 44
0.0
 45
0.0
 46
0.0
 47
0.0
 48
0.0
 49
0.0
140
0.0
141
0.0
142
1.0
143
1.0
 70
   688
 72
     0
 73
     0
 74
     5
  7

 75
    16
147
1.0
 76
     0
 77
     2
 78
   300
148
0.0
149
0.0
100
AcDbLayout
  1
レイアウト2
 70
     1
 71
     2
 10
0.0
 20
0.0
 11
12.0
 21
9.0
 12
0.0
 22
0.0
 32
0.0
 14
0.0
 24
0.0
 34
0.0
 15
0.0
 25
0.0
 35
0.0
146
0.0
 13
0.0
 23
0.0
 33
0.0
 16
1.0
 26
0.0
 36
0.0
 17
0.0
 27
1.0
 37
0.0
 76
     0
330
D6
  0
MATERIAL
  5
ED
102
{ACAD_XDICTIONARY
360
1F9
102
}
102
{ACAD_REACTORS
330
6A
102
}
330
6A
100
AcDbMaterial
  1
ByBlock
 94
       63
  0
MATERIAL
  5
EC
102
{ACAD_XDICTIONARY
360
1F7
102
}
102
{ACAD_REACTORS
330
6A
102
}
330
6A
100
AcDbMaterial
  1
ByLayer
 94
       63
  0
MATERIAL
  5
EE
102
{ACAD_XDICTIONARY
360
173
102
}
102
{ACAD_REACTORS
330
6A
102
}
330
6A
100
AcDbMaterial
  1
Global
 43
0.0007999999797903
 43
0.0
 43
0.0
 43
0.0
 43
0.0
 43
0.0007999999797903
 43
0.0
 43
0.0
 43
0.0
 43
0.0
 43
1.0
 43
0.0
 43
0.0
 43
0.0
 43
0.0
 43
1.0
 49
0.0007999999797903
 49
0.0
 49
0.0
 49
0.0
 49
0.0
 49
0.0007999999797903
 49
0.0
 49
0.0
 49
0.0
 49
0.0
 49
1.0
 49
0.0
 49
0.0
 49
0.0
 49
0.0
 49
1.0
142
0.0007999999797903
142
0.0
142
0.0
142
0.0
142
0.0
142
0.0007999999797903
142
0.0
142
0.0
142
0.0
142
0.0
142
1.0
142
0.0
142
0.0
142
0.0
142
0.0
142
1.0
144
0.0007999999797903
144
0.0
144
0.0
144
0.0
144
0.0
144
0.0007999999797903
144
0.0
144
0.0
144
0.0
144
0.0
144
1.0
144
0.0
144
0.0
144
0.0
144
0.0
144
1.0
 94
       63
1001
ACAD
1070
    -1
1070
     3
1070
     0
1000

1071
        0
1070
     0
  0
MLEADERSTYLE
  5
13B
102
{ACAD_REACTORS
330
12D
102
}
330
12D
100
AcDbMLeaderStyle
179
     2
170
     2
171
     1
172
     0
 90
        2
 40
0.0
 41
0.0
173
     1
 91
-1056964608
340
14
 92
       -2
290
     1
 42
2.0
291
     1
 43
8.0
  3
Standard
 44
4.0
300

342
11
174
     1
178
     1
175
     1
176
     0
 93
-1056964608
 45
4.0
292
     0
297
     0
 46
4.0
 94
-1056964608
 47
1.0
 49
1.0
140
1.0
293
     1
141
0.0
294
     1
177
     0
142
1.0
295
     0
296
     1
143
3.75
271
     0
272
     9
273
     9
298
     0
  0
MLEADERSTYLE
  5
12E
102
{ACAD_REACTORS
330
12D
330
55C
330
55D
330
55E
330
55F
330
56B
330
517
330
527
330
4DA
102
}
330
12D
100
AcDbMLeaderStyle
179
     2
170
     2
171
     1
172
     0
 90
        2
 40
0.0
 41
0.0
173
     1
 91
-1056964608
340
14
 92
       -2
290
     1
 42
2.0
291
     1
 43
8.0
  3
Standard
 44
4.0
300

342
11
174
     1
178
     1
175
     1
176
     0
 93
-1056964608
 45
4.0
292
     0
297
     0
 46
4.0
 94
-1056964608
 47
1.0
 49
1.0
140
1.0
293
     1
141
0.0
294
     1
177
     0
142
1.0
295
     0
296
     0
143
3.75
271
     0
272
     9
273
     9
298
     0
  0
MLINESTYLE
  5
18
102
{ACAD_REACTORS
330
17
102
}
330
17
100
AcDbMlineStyle
  2
STANDARD
 70
     0
  3

 62
   256
 51
90.0
 52
90.0
 71
     2
 49
0.5
 62
   256
  6
BYLAYER
 49
-0.5
 62
   256
  6
BYLAYER
  0
PLOTSETTINGS
  5
721
102
{ACAD_REACTORS
330
19
102
}
330
19
100
AcDbPlotSettings
  1
セットアップ1
  2
Adobe PDF
  4
A4
  6

 40
0.0
 41
0.010498046875
 42
0.0901641845703125
 43
0.0
 44
210.0
 45
297.0
 46
0.0
 47
0.0585099356515002
 48
440.4720142505939
 49
215.6236590285641
140
650.4720142505939
141
512.6236590285641
142
1.0
143
1.000429537683263
 70
 11956
 72
     1
 73
     0
 74
     4
  7

 75
     0
147
0.9995706467401413
 76
     0
 77
     2
 78
   300
148
-440.4720142505939
149
-215.6236590285641
1001
ACAD_PSEXT
1000
Adobe PDF
1000
Adobe PDF Converter
1000
Documents\*.pdf
1000

1070
     0
  0
ACDBPLACEHOLDER
  5
F
102
{ACAD_REACTORS
330
E
102
}
330
E
  0
SCALE
  5
10D
102
{ACAD_REACTORS
330
10C
102
}
330
10C
100
AcDbScale
 70
     0
300
1:1
140
1.0
141
1.0
290
     1
  0
SCALE
  5
1BE
102
{ACAD_REACTORS
330
10C
102
}
330
10C
100
AcDbScale
 70
     0
300
1:2
140
1.0
141
2.0
290
     0
  0
SCALE
  5
1BF
102
{ACAD_REACTORS
330
10C
102
}
330
10C
100
AcDbScale
 70
     0
300
1:4
140
1.0
141
4.0
290
     0
  0
SCALE
  5
1C0
102
{ACAD_REACTORS
330
10C
102
}
330
10C
100
AcDbScale
 70
     0
300
1:5
140
1.0
141
5.0
290
     0
  0
SCALE
  5
1C1
102
{ACAD_REACTORS
330
10C
102
}
330
10C
100
AcDbScale
 70
     0
300
1:8
140
1.0
141
8.0
290
     0
  0
SCALE
  5
1C2
102
{ACAD_REACTORS
330
10C
102
}
330
10C
100
AcDbScale
 70
     0
300
1:10
140
1.0
141
10.0
290
     0
  0
SCALE
  5
1C3
102
{ACAD_REACTORS
330
10C
102
}
330
10C
100
AcDbScale
 70
     0
300
1:16
140
1.0
141
16.0
290
     0
  0
SCALE
  5
1C4
102
{ACAD_REACTORS
330
10C
102
}
330
10C
100
AcDbScale
 70
     0
300
1:20
140
1.0
141
20.0
290
     0
  0
SCALE
  5
1C5
102
{ACAD_REACTORS
330
10C
102
}
330
10C
100
AcDbScale
 70
     0
300
1:30
140
1.0
141
30.0
290
     0
  0
SCALE
  5
1C6
102
{ACAD_REACTORS
330
10C
102
}
330
10C
100
AcDbScale
 70
     0
300
1:40
140
1.0
141
40.0
290
     0
  0
SCALE
  5
1C7
102
{ACAD_REACTORS
330
10C
102
}
330
10C
100
AcDbScale
 70
     0
300
1:50
140
1.0
141
50.0
290
     0
  0
SCALE
  5
1C8
102
{ACAD_REACTORS
330
10C
102
}
330
10C
100
AcDbScale
 70
     0
300
1:100
140
1.0
141
100.0
290
     0
  0
SCALE
  5
1C9
102
{ACAD_REACTORS
330
10C
102
}
330
10C
100
AcDbScale
 70
     0
300
2:1
140
2.0
141
1.0
290
     0
  0
SCALE
  5
1CA
102
{ACAD_REACTORS
330
10C
102
}
330
10C
100
AcDbScale
 70
     0
300
4:1
140
4.0
141
1.0
290
     0
  0
SCALE
  5
1CB
102
{ACAD_REACTORS
330
10C
102
}
330
10C
100
AcDbScale
 70
     0
300
8:1
140
8.0
141
1.0
290
     0
  0
SCALE
  5
1CC
102
{ACAD_REACTORS
330
10C
102
}
330
10C
100
AcDbScale
 70
     0
300
10:1
140
10.0
141
1.0
290
     0
  0
SCALE
  5
1CD
102
{ACAD_REACTORS
330
10C
102
}
330
10C
100
AcDbScale
 70
     0
300
100:1
140
100.0
141
1.0
290
     0
  0
ACDBSECTIONVIEWSTYLE
  5
2B2
102
{ACAD_REACTORS
330
219
102
}
330
219
100
AcDbModelDocViewStyle
 70
     0
  3
Imperial24
290
     0
300
Imperial24
 90
        0
100
AcDbSectionViewStyle
 70
     0
 71
     0
 90
       78
 71
     1
340
11
 62
   256
 40
0.24
340
0
340
0
 62
   256
 40
0.24
300
I, O, Q, S, X, Z
 40
0.48
 90
        3
 40
0.18
 90
        1
 71
     2
340
16
 90
       25
 62
   256
340
16
 90
       50
 62
   256
 40
0.24
 40
0.0
 40
0.24
 71
     3
340
11
 62
   256
 40
0.24
 90
        1
 40
0.75
 90
        1
300
%<\AcVar ViewType \f "%tc1">% %<\AcVar ViewSectionStartId>%-%<\AcVar ViewSectionEndId>%\PSCALE %<\AcVar ViewScale \f "%sn">%
 71
     4
 62
   256
 62
   257
300
ANSI31
 40
1.0
 90
        0
290
     0
290
     0
 90
        6
 40
0.0
 40
1.570796326794896
 40
0.2617993877991494
 40
1.308996938995747
 40
-0.2617993877991494
 40
1.832595714594046
  0
ACDBSECTIONVIEWSTYLE
  5
21A
102
{ACAD_REACTORS
330
219
102
}
330
219
100
AcDbModelDocViewStyle
 70
     0
  3
Metric50
290
     0
300
Metric50
 90
        0
100
AcDbSectionViewStyle
 70
     0
 71
     0
 90
      102
 71
     1
340
11
 62
   256
 40
5.0
340
0
340
0
 62
   256
 40
5.0
300
I, O, Q, S, X, Z
 40
10.0
 90
        0
 40
2.5
 90
        0
 71
     2
340
16
 90
       25
 62
   256
340
16
 90
       50
 62
   256
 40
5.0
 40
2.5
 40
5.0
 71
     3
340
11
 62
   256
 40
5.0
 90
        0
 40
15.0
 90
        1
300
%<\AcVar ViewSectionStartId>%-%<\AcVar ViewSectionEndId>% (%<\AcVar ViewScale \f "%sn">%)
 71
     4
 62
   256
 62
   257
300
ANSI31
 40
1.0
 90
        0
290
     0
290
     0
 90
        6
 40
0.0
 40
1.570796326794896
 40
0.2617993877991494
 40
1.308996938995747
 40
-0.2617993877991494
 40
1.832595714594046
  0
TABLESTYLE
  5
7F
102
{ACAD_XDICTIONARY
360
162
102
}
102
{ACAD_REACTORS
330
7E
102
}
330
7E
100
AcDbTableStyle
280
     0
  3
Standard
 70
     0
 71
     0
 40
1.5
 41
1.5
280
     0
281
     0
  7
Standard
140
4.5
170
     2
 62
     0
 63
     7
283
     0
 90
      512
 91
        0
  1

274
    -2
284
     1
 64
     0
275
    -2
285
     1
 65
     0
276
    -2
286
     1
 66
     0
277
    -2
287
     1
 67
     0
278
    -2
288
     1
 68
     0
279
    -2
289
     1
 69
     0
  7
Standard
140
6.0
170
     5
 62
     0
 63
     7
283
     0
 90
      512
 91
        0
  1

274
    -2
284
     1
 64
     0
275
    -2
285
     1
 65
     0
276
    -2
286
     1
 66
     0
277
    -2
287
     1
 67
     0
278
    -2
288
     1
 68
     0
279
    -2
289
     1
 69
     0
  7
Standard
140
4.5
170
     5
 62
     0
 63
     7
283
     0
 90
      512
 91
        0
  1

274
    -2
284
     1
 64
     0
275
    -2
285
     1
 65
     0
276
    -2
286
     1
 66
     0
277
    -2
287
     1
 67
     0
278
    -2
288
     1
 68
     0
279
    -2
289
     1
 69
     0
  0
VISUALSTYLE
  5
F5
102
{ACAD_REACTORS
330
EF
102
}
330
EF
100
AcDbVisualStyle
  2
2dWireframe
 70
     4
177
     3
291
     0
 70
    58
 90
        0
176
     1
 90
        2
176
     1
 90
        1
176
     1
 90
        0
176
     1
 40
0.6
176
     1
 40
30.0
176
     1
 62
     7
420
 16777215
176
     1
 90
        1
176
     1
 90
        4
176
     1
 62
     7
176
     1
 62
   257
176
     1
 90
        1
176
     1
 90
        1
176
     1
 40
1.0
176
     1
 90
        0
176
     1
 62
   257
176
     1
 40
1.0
176
     1
 90
        1
176
     1
 90
        6
176
     1
 90
        2
176
     1
 62
     7
176
     1
 90
        5
176
     1
 90
        0
176
     1
 90
        0
176
     1
290
     0
176
     1
 90
        1
176
     1
 40
0.0
176
     1
 90
        0
176
     1
290
     1
176
     1
290
     1
176
     1
290
     0
176
     1
290
     0
176
     1
290
     0
176
     1
290
     0
176
     1
290
     0
176
     1
290
     0
176
     1
290
     0
176
     1
 90
       50
176
     1
 40
0.0
176
     1
 40
1.0
176
     1
 90
        0
176
     1
 62
    18
420
        0
176
     1
 90
       50
176
     1
 90
        3
176
     1
 62
     5
420
      255
176
     1
290
     0
176
     1
 90
       50
176
     1
 90
       50
176
     1
 90
       50
176
     1
290
     0
176
     1
 90
       50
176
     1
 62
   256
176
     0
 40
1.0
176
     0
 90
        2
176
     1
  1
strokes_ogs.tif
176
     1
290
     0
176
     1
 40
1.0
176
     1
 40
1.0
176
     1
  0
VISUALSTYLE
  5
F4
102
{ACAD_REACTORS
330
EF
102
}
330
EF
100
AcDbVisualStyle
  2
Basic
 70
     7
177
     3
291
     1
 70
    58
 90
        1
176
     1
 90
        0
176
     1
 90
        1
176
     1
 90
        0
176
     1
 40
0.6
176
     1
 40
30.0
176
     1
 62
     7
420
 16777215
176
     1
 90
        0
176
     1
 90
        4
176
     1
 62
     7
176
     1
 62
   257
176
     1
 90
        1
176
     1
 90
        1
176
     1
 40
1.0
176
     1
 90
        8
176
     1
 62
     7
176
     1
 40
1.0
176
     1
 90
        1
176
     1
 90
        6
176
     1
 90
        2
176
     1
 62
     7
176
     1
 90
        5
176
     1
 90
        0
176
     1
 90
        0
176
     1
290
     0
176
     1
 90
        1
176
     1
 40
0.0
176
     1
 90
        0
176
     1
290
     0
176
     1
290
     1
176
     1
290
     1
176
     1
290
     0
176
     1
290
     0
176
     1
290
     0
176
     1
290
     0
176
     1
290
     0
176
     1
290
     0
176
     1
 90
       50
176
     1
 40
0.0
176
     1
 40
1.0
176
     1
 90
        0
176
     1
 62
    18
420
        0
176
     1
 90
       50
176
     1
 90
        3
176
     1
 62
     5
420
      255
176
     1
290
     0
176
     1
 90
       50
176
     1
 90
       50
176
     1
 90
       50
176
     1
290
     0
176
     1
 90
       50
176
     1
 62
   256
176
     0
 40
1.0
176
     0
 90
        2
176
     1
  1
strokes_ogs.tif
176
     1
290
     0
176
     1
 40
1.0
176
     1
 40
1.0
176
     1
  0
VISUALSTYLE
  5
FB
102
{ACAD_REACTORS
330
EF
102
}
330
EF
100
AcDbVisualStyle
  2
Brighten
 70
    12
177
     3
291
     1
 70
    58
 90
        2
176
     1
 90
        2
176
     1
 90
        1
176
     1
 90
        0
176
     1
 40
0.6
176
     1
 40
30.0
176
     1
 62
     7
420
 16777215
176
     1
 90
        1
176
     1
 90
        4
176
     1
 62
     7
176
     1
 62
   257
176
     1
 90
        1
176
     1
 90
        1
176
     1
 40
1.0
176
     1
 90
        8
176
     1
 62
     7
176
     1
 40
1.0
176
     1
 90
        1
176
     1
 90
        6
176
     1
 90
        2
176
     1
 62
     7
176
     1
 90
        5
176
     1
 90
        0
176
     1
 90
        0
176
     1
290
     0
176
     1
 90
        1
176
     1
 40
50.0
176
     1
 90
        0
176
     1
290
     0
176
     1
290
     1
176
     1
290
     1
176
     1
290
     0
176
     1
290
     0
176
     1
290
     0
176
     1
290
     0
176
     1
290
     0
176
     1
290
     0
176
     1
 90
       50
176
     1
 40
0.0
176
     1
 40
1.0
176
     1
 90
        0
176
     1
 62
    18
420
        0
176
     1
 90
       50
176
     1
 90
        3
176
     1
 62
     5
420
      255
176
     1
290
     0
176
     1
 90
       50
176
     1
 90
       50
176
     1
 90
       50
176
     1
290
     0
176
     1
 90
       50
176
     1
 62
   256
176
     0
 40
1.0
176
     0
 90
        2
176
     1
  1
strokes_ogs.tif
176
     1
290
     0
176
     1
 40
1.0
176
     1
 40
1.0
176
     1
  0
VISUALSTYLE
  5
FF
102
{ACAD_REACTORS
330
EF
102
}
330
EF
100
AcDbVisualStyle
  2
ColorChange
 70
    16
177
     3
291
     1
 70
    58
 90
        2
176
     1
 90
        2
176
     1
 90
        3
176
     1
 90
        0
176
     1
 40
0.6
176
     1
 40
30.0
176
     1
 62
     8
420
  8421504
176
     1
 90
        1
176
     1
 90
        4
176
     1
 62
     7
176
     1
 62
   257
176
     1
 90
        1
176
     1
 90
        1
176
     1
 40
1.0
176
     1
 90
        8
176
     1
 62
     8
420
  8421504
176
     1
 40
1.0
176
     1
 90
        1
176
     1
 90
        6
176
     1
 90
        2
176
     1
 62
     7
176
     1
 90
        5
176
     1
 90
        0
176
     1
 90
        0
176
     1
290
     0
176
     1
 90
        1
176
     1
 40
0.0
176
     1
 90
        0
176
     1
290
     0
176
     1
290
     1
176
     1
290
     1
176
     1
290
     0
176
     1
290
     0
176
     1
290
     0
176
     1
290
     0
176
     1
290
     0
176
     1
290
     0
176
     1
 90
       50
176
     1
 40
0.0
176
     1
 40
1.0
176
     1
 90
        0
176
     1
 62
    18
420
        0
176
     1
 90
       50
176
     1
 90
        3
176
     1
 62
     5
420
      255
176
     1
290
     0
176
     1
 90
       50
176
     1
 90
       50
176
     1
 90
       50
176
     1
290
     0
176
     1
 90
       50
176
     1
 62
   256
176
     0
 40
1.0
176
     0
 90
        2
176
     1
  1
strokes_ogs.tif
176
     1
290
     0
176
     1
 40
1.0
176
     1
 40
1.0
176
     1
  0
VISUALSTYLE
  5
F8
102
{ACAD_REACTORS
330
EF
102
}
330
EF
100
AcDbVisualStyle
  2
Conceptual
 70
     9
177
     3
291
     0
 70
    58
 90
        3
176
     1
 90
        2
176
     1
 90
        1
176
     1
 90
        0
176
     1
 40
0.6
176
     1
 40
30.0
176
     1
 62
     7
420
 16777215
176
     1
 90
        2
176
     1
 90
        2
176
     1
 62
     7
176
     1
 62
   257
176
     1
 90
        1
176
     1
 90
        1
176
     1
 40
40.0
176
     1
 90
        8
176
     1
 62
     7
176
     1
 40
1.0
176
     1
 90
        1
176
     1
 90
        6
176
     1
 90
        2
176
     1
 62
     7
176
     1
 90
        3
176
     1
 90
        0
176
     1
 90
        0
176
     1
290
     0
176
     1
 90
        1
176
     1
 40
0.0
176
     1
 90
        0
176
     1
290
     0
176
     1
290
     1
176
     1
290
     1
176
     1
290
     0
176
     1
290
     0
176
     1
290
     0
176
     1
290
     0
176
     1
290
     0
176
     1
290
     0
176
     1
 90
       50
176
     1
 40
0.0
176
     1
 40
1.0
176
     1
 90
        0
176
     1
 62
    18
420
        0
176
     1
 90
       50
176
     1
 90
        3
176
     1
 62
     5
420
      255
176
     1
290
     0
176
     1
 90
       50
176
     1
 90
       50
176
     1
 90
       50
176
     1
290
     0
176
     1
 90
       50
176
     1
 62
   256
176
     0
 40
1.0
176
     0
 90
        2
176
     1
  1
strokes_ogs.tif
176
     1
290
     0
176
     1
 40
1.0
176
     1
 40
1.0
176
     1
  0
VISUALSTYLE
  5
FA
102
{ACAD_REACTORS
330
EF
102
}
330
EF
100
AcDbVisualStyle
  2
Dim
 70
    11
177
     3
291
     1
 70
    58
 90
        2
176
     1
 90
        2
176
     1
 90
        1
176
     1
 90
        0
176
     1
 40
0.6
176
     1
 40
30.0
176
     1
 62
     7
420
 16777215
176
     1
 90
        1
176
     1
 90
        4
176
     1
 62
     7
176
     1
 62
   257
176
     1
 90
        1
176
     1
 90
        1
176
     1
 40
1.0
176
     1
 90
        8
176
     1
 62
     7
176
     1
 40
1.0
176
     1
 90
        1
176
     1
 90
        6
176
     1
 90
        2
176
     1
 62
     7
176
     1
 90
        5
176
     1
 90
        0
176
     1
 90
        0
176
     1
290
     0
176
     1
 90
        1
176
     1
 40
-50.0
176
     1
 90
        0
176
     1
290
     0
176
     1
290
     1
176
     1
290
     1
176
     1
290
     0
176
     1
290
     0
176
     1
290
     0
176
     1
290
     0
176
     1
290
     0
176
     1
290
     0
176
     1
 90
       50
176
     1
 40
0.0
176
     1
 40
1.0
176
     1
 90
        0
176
     1
 62
    18
420
        0
176
     1
 90
       50
176
     1
 90
        3
176
     1
 62
     5
420
      255
176
     1
290
     0
176
     1
 90
       50
176
     1
 90
       50
176
     1
 90
       50
176
     1
290
     0
176
     1
 90
       50
176
     1
 62
   256
176
     0
 40
1.0
176
     0
 90
        2
176
     1
  1
strokes_ogs.tif
176
     1
290
     0
176
     1
 40
1.0
176
     1
 40
1.0
176
     1
  0
VISUALSTYLE
  5
1E6
102
{ACAD_REACTORS
330
EF
102
}
330
EF
100
AcDbVisualStyle
  2
EdgeColorOff
 70
    22
177
     3
291
     1
 70
    58
 90
        2
176
     0
 90
        2
176
     0
 90
        0
176
     0
 90
        0
176
     0
 40
0.6
176
     0
 40
30.0
176
     0
 62
     7
420
 16777215
176
     0
 90
        1
176
     0
 90
        4
176
     0
 62
     7
176
     0
 62
   257
176
     0
 90
        1
176
     0
 90
        1
176
     0
 40
1.0
176
     0
 90
        8
176
     2
 62
     7
176
     0
 40
1.0
176
     0
 90
        1
176
     0
 90
        6
176
     0
 90
        2
176
     0
 62
     7
176
     0
 90
        5
176
     0
 90
        0
176
     0
 90
        0
176
     0
290
     0
176
     0
 90
        1
176
     0
 40
0.0
176
     0
 90
        0
176
     0
290
     0
176
     1
290
     1
176
     1
290
     1
176
     1
290
     0
176
     1
290
     0
176
     1
290
     0
176
     1
290
     0
176
     1
290
     0
176
     1
290
     0
176
     1
 90
       50
176
     1
 40
0.0
176
     1
 40
1.0
176
     1
 90
        0
176
     1
 62
    18
420
        0
176
     1
 90
       50
176
     1
 90
        3
176
     1
 62
     5
420
      255
176
     1
290
     0
176
     1
 90
       50
176
     1
 90
       50
176
     1
 90
       50
176
     1
290
     0
176
     1
 90
       50
176
     1
 62
   256
176
     0
 40
1.0
176
     0
 90
        2
176
     1
  1
strokes_ogs.tif
176
     1
290
     0
176
     1
 40
1.0
176
     1
 40
1.0
176
     1
  0
VISUALSTYLE
  5
FE
102
{ACAD_REACTORS
330
EF
102
}
330
EF
100
AcDbVisualStyle
  2
Facepattern
 70
    15
177
     3
291
     1
 70
    58
 90
        2
176
     1
 90
        2
176
     1
 90
        1
176
     1
 90
        0
176
     1
 40
0.6
176
     1
 40
30.0
176
     1
 62
     7
420
 16777215
176
     1
 90
        1
176
     1
 90
        4
176
     1
 62
     7
176
     1
 62
   257
176
     1
 90
        1
176
     1
 90
        1
176
     1
 40
1.0
176
     1
 90
        8
176
     1
 62
     7
176
     1
 40
1.0
176
     1
 90
        1
176
     1
 90
        6
176
     1
 90
        2
176
     1
 62
     7
176
     1
 90
        5
176
     1
 90
        0
176
     1
 90
        0
176
     1
290
     0
176
     1
 90
        1
176
     1
 40
0.0
176
     1
 90
        0
176
     1
290
     0
176
     1
290
     1
176
     1
290
     1
176
     1
290
     0
176
     1
290
     0
176
     1
290
     0
176
     1
290
     0
176
     1
290
     0
176
     1
290
     0
176
     1
 90
       50
176
     1
 40
0.0
176
     1
 40
1.0
176
     1
 90
        0
176
     1
 62
    18
420
        0
176
     1
 90
       50
176
     1
 90
        3
176
     1
 62
     5
420
      255
176
     1
290
     0
176
     1
 90
       50
176
     1
 90
       50
176
     1
 90
       50
176
     1
290
     0
176
     1
 90
       50
176
     1
 62
   256
176
     0
 40
1.0
176
     0
 90
        2
176
     1
  1
strokes_ogs.tif
176
     1
290
     0
176
     1
 40
1.0
176
     1
 40
1.0
176
     1
  0
VISUALSTYLE
  5
F0
102
{ACAD_REACTORS
330
EF
102
}
330
EF
100
AcDbVisualStyle
  2
Flat
 70
     0
177
     3
291
     1
 70
    58
 90
        2
176
     1
 90
        1
176
     1
 90
        1
176
     1
 90
        2
176
     1
 40
0.6
176
     1
 40
30.0
176
     1
 62
     7
420
 16777215
176
     1
 90
        0
176
     1
 90
        0
176
     1
 62
     7
176
     1
 62
   257
176
     1
 90
        1
176
     1
 90
        1
176
     1
 40
1.0
176
     1
 90
        8
176
     1
 62
     7
176
     1
 40
1.0
176
     1
 90
        1
176
     1
 90
        6
176
     1
 90
        2
176
     1
 62
     7
176
     1
 90
        5
176
     1
 90
        0
176
     1
 90
        0
176
     1
290
     0
176
     1
 90
       13
176
     1
 40
0.0
176
     1
 90
        0
176
     1
290
     0
176
     1
290
     1
176
     1
290
     1
176
     1
290
     0
176
     1
290
     0
176
     1
290
     0
176
     1
290
     0
176
     1
290
     0
176
     1
290
     0
176
     1
 90
       50
176
     1
 40
0.0
176
     1
 40
1.0
176
     1
 90
        0
176
     1
 62
    18
420
        0
176
     1
 90
       50
176
     1
 90
        3
176
     1
 62
     5
420
      255
176
     1
290
     0
176
     1
 90
       50
176
     1
 90
       50
176
     1
 90
       50
176
     1
290
     0
176
     1
 90
       50
176
     1
 62
   256
176
     0
 40
1.0
176
     0
 90
        2
176
     1
  1
strokes_ogs.tif
176
     1
290
     0
176
     1
 40
1.0
176
     1
 40
1.0
176
     1
  0
VISUALSTYLE
  5
F1
102
{ACAD_REACTORS
330
EF
102
}
330
EF
100
AcDbVisualStyle
  2
FlatWithEdges
 70
     1
177
     3
291
     1
 70
    58
 90
        2
176
     1
 90
        1
176
     1
 90
        1
176
     1
 90
        2
176
     1
 40
0.6
176
     1
 40
30.0
176
     1
 62
     7
420
 16777215
176
     1
 90
        1
176
     1
 90
        0
176
     1
 62
     7
176
     1
 62
   257
176
     1
 90
        1
176
     1
 90
        1
176
     1
 40
1.0
176
     1
 90
        0
176
     1
 62
   257
176
     1
 40
1.0
176
     1
 90
        1
176
     1
 90
        6
176
     1
 90
        2
176
     1
 62
     7
176
     1
 90
        5
176
     1
 90
        0
176
     1
 90
        0
176
     1
290
     0
176
     1
 90
       13
176
     1
 40
0.0
176
     1
 90
        0
176
     1
290
     0
176
     1
290
     1
176
     1
290
     1
176
     1
290
     0
176
     1
290
     0
176
     1
290
     0
176
     1
290
     0
176
     1
290
     0
176
     1
290
     0
176
     1
 90
       50
176
     1
 40
0.0
176
     1
 40
1.0
176
     1
 90
        0
176
     1
 62
    18
420
        0
176
     1
 90
       50
176
     1
 90
        3
176
     1
 62
     5
420
      255
176
     1
290
     0
176
     1
 90
       50
176
     1
 90
       50
176
     1
 90
       50
176
     1
290
     0
176
     1
 90
       50
176
     1
 62
   256
176
     0
 40
1.0
176
     0
 90
        2
176
     1
  1
strokes_ogs.tif
176
     1
290
     0
176
     1
 40
1.0
176
     1
 40
1.0
176
     1
  0
VISUALSTYLE
  5
F2
102
{ACAD_REACTORS
330
EF
102
}
330
EF
100
AcDbVisualStyle
  2
Gouraud
 70
     2
177
     3
291
     1
 70
    58
 90
        2
176
     1
 90
        2
176
     1
 90
        1
176
     1
 90
        2
176
     1
 40
0.6
176
     1
 40
30.0
176
     1
 62
     7
420
 16777215
176
     1
 90
        0
176
     1
 90
        0
176
     1
 62
     7
176
     1
 62
   257
176
     1
 90
        1
176
     1
 90
        1
176
     1
 40
1.0
176
     1
 90
        0
176
     1
 62
     7
176
     1
 40
1.0
176
     1
 90
        1
176
     1
 90
        6
176
     1
 90
        2
176
     1
 62
     7
176
     1
 90
        5
176
     1
 90
        0
176
     1
 90
        0
176
     1
290
     0
176
     1
 90
       13
176
     1
 40
0.0
176
     1
 90
        0
176
     1
290
     0
176
     1
290
     1
176
     1
290
     1
176
     1
290
     0
176
     1
290
     0
176
     1
290
     0
176
     1
290
     0
176
     1
290
     0
176
     1
290
     0
176
     1
 90
       50
176
     1
 40
0.0
176
     1
 40
1.0
176
     1
 90
        0
176
     1
 62
    18
420
        0
176
     1
 90
       50
176
     1
 90
        3
176
     1
 62
     5
420
      255
176
     1
290
     0
176
     1
 90
       50
176
     1
 90
       50
176
     1
 90
       50
176
     1
290
     0
176
     1
 90
       50
176
     1
 62
   256
176
     0
 40
1.0
176
     0
 90
        2
176
     1
  1
strokes_ogs.tif
176
     1
290
     0
176
     1
 40
1.0
176
     1
 40
1.0
176
     1
  0
VISUALSTYLE
  5
F3
102
{ACAD_REACTORS
330
EF
102
}
330
EF
100
AcDbVisualStyle
  2
GouraudWithEdges
 70
     3
177
     3
291
     1
 70
    58
 90
        2
176
     1
 90
        2
176
     1
 90
        1
176
     1
 90
        2
176
     1
 40
0.6
176
     1
 40
30.0
176
     1
 62
     7
420
 16777215
176
     1
 90
        1
176
     1
 90
        0
176
     1
 62
     7
176
     1
 62
   257
176
     1
 90
        1
176
     1
 90
        1
176
     1
 40
1.0
176
     1
 90
        0
176
     1
 62
   257
176
     1
 40
1.0
176
     1
 90
        1
176
     1
 90
        6
176
     1
 90
        2
176
     1
 62
     7
176
     1
 90
        5
176
     1
 90
        0
176
     1
 90
        0
176
     1
290
     0
176
     1
 90
       13
176
     1
 40
0.0
176
     1
 90
        0
176
     1
290
     0
176
     1
290
     1
176
     1
290
     1
176
     1
290
     0
176
     1
290
     0
176
     1
290
     0
176
     1
290
     0
176
     1
290
     0
176
     1
290
     0
176
     1
 90
       50
176
     1
 40
0.0
176
     1
 40
1.0
176
     1
 90
        0
176
     1
 62
    18
420
        0
176
     1
 90
       50
176
     1
 90
        3
176
     1
 62
     5
420
      255
176
     1
290
     0
176
     1
 90
       50
176
     1
 90
       50
176
     1
 90
       50
176
     1
290
     0
176
     1
 90
       50
176
     1
 62
   256
176
     0
 40
1.0
176
     0
 90
        2
176
     1
  1
strokes_ogs.tif
176
     1
290
     0
176
     1
 40
1.0
176
     1
 40
1.0
176
     1
  0
VISUALSTYLE
  5
F7
102
{ACAD_REACTORS
330
EF
102
}
330
EF
100
AcDbVisualStyle
  2
Hidden
 70
     6
177
     3
291
     0
 70
    58
 90
        1
176
     1
 90
        2
176
     1
 90
        2
176
     1
 90
        0
176
     1
 40
0.6
176
     1
 40
30.0
176
     1
 62
     7
420
 16777215
176
     1
 90
        2
176
     1
 90
        2
176
     1
 62
     7
176
     1
 62
   257
176
     1
 90
        2
176
     1
 90
        1
176
     1
 40
40.0
176
     1
 90
        0
176
     1
 62
   257
176
     1
 40
1.0
176
     1
 90
        1
176
     1
 90
        6
176
     1
 90
        2
176
     1
 62
     7
176
     1
 90
        3
176
     1
 90
        0
176
     1
 90
        0
176
     1
290
     0
176
     1
 90
        1
176
     1
 40
0.0
176
     1
 90
        0
176
     1
290
     0
176
     1
290
     1
176
     1
290
     1
176
     1
290
     0
176
     1
290
     0
176
     1
290
     0
176
     1
290
     0
176
     1
290
     0
176
     1
290
     0
176
     1
 90
       50
176
     1
 40
0.0
176
     1
 40
1.0
176
     1
 90
        0
176
     1
 62
    18
420
        0
176
     1
 90
       50
176
     1
 90
        3
176
     1
 62
     5
420
      255
176
     1
290
     0
176
     1
 90
       50
176
     1
 90
       50
176
     1
 90
       50
176
     1
290
     0
176
     1
 90
       50
176
     1
 62
   256
176
     0
 40
1.0
176
     0
 90
        2
176
     1
  1
strokes_ogs.tif
176
     1
290
     0
176
     1
 40
1.0
176
     1
 40
1.0
176
     1
  0
VISUALSTYLE
  5
1E4
102
{ACAD_REACTORS
330
EF
102
}
330
EF
100
AcDbVisualStyle
  2
JitterOff
 70
    20
177
     3
291
     1
 70
    58
 90
        2
176
     0
 90
        2
176
     0
 90
        0
176
     0
 90
        0
176
     0
 40
0.6
176
     0
 40
30.0
176
     0
 62
     7
420
 16777215
176
     0
 90
        1
176
     0
 90
        4
176
     0
 62
     7
176
     0
 62
   257
176
     0
 90
        1
176
     0
 90
        1
176
     0
 40
1.0
176
     0
 90
       10
176
     2
 62
     7
176
     0
 40
1.0
176
     0
 90
        1
176
     0
 90
        6
176
     0
 90
        2
176
     0
 62
     7
176
     0
 90
        5
176
     0
 90
        0
176
     0
 90
        0
176
     0
290
     0
176
     0
 90
        1
176
     0
 40
0.0
176
     0
 90
        0
176
     0
290
     0
176
     1
290
     1
176
     1
290
     1
176
     1
290
     0
176
     1
290
     0
176
     1
290
     0
176
     1
290
     0
176
     1
290
     0
176
     1
290
     0
176
     1
 90
       50
176
     1
 40
0.0
176
     1
 40
1.0
176
     1
 90
        0
176
     1
 62
    18
420
        0
176
     1
 90
       50
176
     1
 90
        3
176
     1
 62
     5
420
      255
176
     1
290
     0
176
     1
 90
       50
176
     1
 90
       50
176
     1
 90
       50
176
     1
290
     0
176
     1
 90
       50
176
     1
 62
   256
176
     0
 40
1.0
176
     0
 90
        2
176
     1
  1
strokes_ogs.tif
176
     1
290
     0
176
     1
 40
1.0
176
     1
 40
1.0
176
     1
  0
VISUALSTYLE
  5
FD
102
{ACAD_REACTORS
330
EF
102
}
330
EF
100
AcDbVisualStyle
  2
Linepattern
 70
    14
177
     3
291
     1
 70
    58
 90
        2
176
     1
 90
        2
176
     1
 90
        1
176
     1
 90
        0
176
     1
 40
0.6
176
     1
 40
30.0
176
     1
 62
     7
420
 16777215
176
     1
 90
        1
176
     1
 90
        4
176
     1
 62
     7
176
     1
 62
   257
176
     1
 90
        7
176
     1
 90
        7
176
     1
 40
1.0
176
     1
 90
        8
176
     1
 62
     7
176
     1
 40
1.0
176
     1
 90
        1
176
     1
 90
        6
176
     1
 90
        2
176
     1
 62
     7
176
     1
 90
        5
176
     1
 90
        0
176
     1
 90
        0
176
     1
290
     0
176
     1
 90
        1
176
     1
 40
0.0
176
     1
 90
        0
176
     1
290
     0
176
     1
290
     1
176
     1
290
     1
176
     1
290
     0
176
     1
290
     0
176
     1
290
     0
176
     1
290
     0
176
     1
290
     0
176
     1
290
     0
176
     1
 90
       50
176
     1
 40
0.0
176
     1
 40
1.0
176
     1
 90
        0
176
     1
 62
    18
420
        0
176
     1
 90
       50
176
     1
 90
        3
176
     1
 62
     5
420
      255
176
     1
290
     0
176
     1
 90
       50
176
     1
 90
       50
176
     1
 90
       50
176
     1
290
     0
176
     1
 90
       50
176
     1
 62
   256
176
     0
 40
1.0
176
     0
 90
        2
176
     1
  1
strokes_ogs.tif
176
     1
290
     0
176
     1
 40
1.0
176
     1
 40
1.0
176
     1
  0
VISUALSTYLE
  5
1E5
102
{ACAD_REACTORS
330
EF
102
}
330
EF
100
AcDbVisualStyle
  2
OverhangOff
 70
    21
177
     3
291
     1
 70
    58
 90
        2
176
     0
 90
        2
176
     0
 90
        0
176
     0
 90
        0
176
     0
 40
0.6
176
     0
 40
30.0
176
     0
 62
     7
420
 16777215
176
     0
 90
        1
176
     0
 90
        4
176
     0
 62
     7
176
     0
 62
   257
176
     0
 90
        1
176
     0
 90
        1
176
     0
 40
1.0
176
     0
 90
        9
176
     2
 62
     7
176
     0
 40
1.0
176
     0
 90
        1
176
     0
 90
        6
176
     0
 90
        2
176
     0
 62
     7
176
     0
 90
        5
176
     0
 90
        0
176
     0
 90
        0
176
     0
290
     0
176
     0
 90
        1
176
     0
 40
0.0
176
     0
 90
        0
176
     0
290
     0
176
     1
290
     1
176
     1
290
     1
176
     1
290
     0
176
     1
290
     0
176
     1
290
     0
176
     1
290
     0
176
     1
290
     0
176
     1
290
     0
176
     1
 90
       50
176
     1
 40
0.0
176
     1
 40
1.0
176
     1
 90
        0
176
     1
 62
    18
420
        0
176
     1
 90
       50
176
     1
 90
        3
176
     1
 62
     5
420
      255
176
     1
290
     0
176
     1
 90
       50
176
     1
 90
       50
176
     1
 90
       50
176
     1
290
     0
176
     1
 90
       50
176
     1
 62
   256
176
     0
 40
1.0
176
     0
 90
        2
176
     1
  1
strokes_ogs.tif
176
     1
290
     0
176
     1
 40
1.0
176
     1
 40
1.0
176
     1
  0
VISUALSTYLE
  5
F9
102
{ACAD_REACTORS
330
EF
102
}
330
EF
100
AcDbVisualStyle
  2
Realistic
 70
     8
177
     3
291
     0
 70
    58
 90
        2
176
     1
 90
        3
176
     1
 90
        0
176
     1
 90
        2
176
     1
 40
0.6
176
     1
 40
30.0
176
     1
 62
     7
420
 16777215
176
     1
 90
        0
176
     1
 90
        0
176
     1
 62
     7
176
     1
 62
   257
176
     1
 90
        1
176
     1
 90
        1
176
     1
 40
1.0
176
     1
 90
        8
176
     1
 62
   257
176
     1
 40
1.0
176
     1
 90
        1
176
     1
 90
        6
176
     1
 90
        2
176
     1
 62
     7
176
     1
 90
        3
176
     1
 90
        0
176
     1
 90
        0
176
     1
290
     0
176
     1
 90
       13
176
     1
 40
0.0
176
     1
 90
        0
176
     1
290
     0
176
     1
290
     1
176
     1
290
     1
176
     1
290
     0
176
     1
290
     0
176
     1
290
     0
176
     1
290
     0
176
     1
290
     0
176
     1
290
     0
176
     1
 90
       50
176
     1
 40
0.0
176
     1
 40
1.0
176
     1
 90
        0
176
     1
 62
    18
420
        0
176
     1
 90
       50
176
     1
 90
        3
176
     1
 62
     5
420
      255
176
     1
290
     0
176
     1
 90
       50
176
     1
 90
       50
176
     1
 90
       50
176
     1
290
     0
176
     1
 90
       50
176
     1
 62
   256
176
     0
 40
1.0
176
     0
 90
        2
176
     1
  1
strokes_ogs.tif
176
     1
290
     0
176
     1
 40
1.0
176
     1
 40
1.0
176
     1
  0
VISUALSTYLE
  5
1F3
102
{ACAD_REACTORS
330
EF
102
}
330
EF
100
AcDbVisualStyle
  2
Shaded
 70
    27
177
     3
291
     0
 70
    58
 90
        2
176
     1
 90
        2
176
     1
 90
        1
176
     1
 90
        2
176
     1
 40
0.6
176
     1
 40
30.0
176
     1
 62
     7
420
 16777215
176
     1
 90
        0
176
     1
 90
        4
176
     1
 62
     7
176
     1
 62
   257
176
     1
 90
        1
176
     1
 90
        1
176
     1
 40
1.0
176
     1
 90
        8
176
     1
 62
   257
176
     1
 40
1.0
176
     1
 90
        1
176
     1
 90
        6
176
     1
 90
        2
176
     1
 62
     8
420
  7895160
176
     1
 90
        3
176
     1
 90
        0
176
     1
 90
        0
176
     1
290
     0
176
     1
 90
        5
176
     1
 40
0.0
176
     1
 90
        0
176
     1
290
     0
176
     1
290
     1
176
     1
290
     1
176
     1
290
     0
176
     1
290
     0
176
     1
290
     0
176
     1
290
     0
176
     1
290
     0
176
     1
290
     0
176
     1
 90
       50
176
     1
 40
0.0
176
     1
 40
1.0
176
     1
 90
        0
176
     1
 62
    18
420
        0
176
     1
 90
       50
176
     1
 90
        3
176
     1
 62
     5
420
      255
176
     1
290
     0
176
     1
 90
       50
176
     1
 90
       50
176
     1
 90
       50
176
     1
290
     0
176
     1
 90
       50
176
     1
 62
   256
176
     0
 40
1.0
176
     0
 90
        2
176
     1
  1
strokes_ogs.tif
176
     1
290
     0
176
     1
 40
1.0
176
     1
 40
1.0
176
     1
  0
VISUALSTYLE
  5
1F2
102
{ACAD_REACTORS
330
EF
102
}
330
EF
100
AcDbVisualStyle
  2
Shaded with edges
 70
    26
177
     3
291
     0
 70
    58
 90
        2
176
     1
 90
        2
176
     1
 90
        1
176
     1
 90
        2
176
     1
 40
0.6
176
     1
 40
30.0
176
     1
 62
     7
420
 16777215
176
     1
 90
        1
176
     1
 90
        2
176
     1
 62
     7
176
     1
 62
   257
176
     1
 90
        2
176
     1
 90
        1
176
     1
 40
1.0
176
     1
 90
        8
176
     1
 62
   257
176
     1
 40
1.0
176
     1
 90
        1
176
     1
 90
        6
176
     1
 90
        2
176
     1
 62
     7
176
     1
 90
        3
176
     1
 90
        0
176
     1
 90
        0
176
     1
290
     0
176
     1
 90
        5
176
     1
 40
0.0
176
     1
 90
        0
176
     1
290
     0
176
     1
290
     1
176
     1
290
     1
176
     1
290
     0
176
     1
290
     0
176
     1
290
     0
176
     1
290
     0
176
     1
290
     0
176
     1
290
     0
176
     1
 90
       50
176
     1
 40
0.0
176
     1
 40
1.0
176
     1
 90
        0
176
     1
 62
    18
420
        0
176
     1
 90
       50
176
     1
 90
        3
176
     1
 62
     5
420
      255
176
     1
290
     0
176
     1
 90
       50
176
     1
 90
       50
176
     1
 90
       50
176
     1
290
     0
176
     1
 90
       50
176
     1
 62
   256
176
     0
 40
1.0
176
     0
 90
        2
176
     1
  1
strokes_ogs.tif
176
     1
290
     0
176
     1
 40
1.0
176
     1
 40
1.0
176
     1
  0
VISUALSTYLE
  5
1EF
102
{ACAD_REACTORS
330
EF
102
}
330
EF
100
AcDbVisualStyle
  2
Shades of Gray
 70
    23
177
     3
291
     0
 70
    58
 90
        2
176
     1
 90
        2
176
     1
 90
        3
176
     1
 90
        0
176
     1
 40
0.6
176
     1
 40
30.0
176
     1
 62
     7
420
 16777215
176
     1
 90
        2
176
     1
 90
        2
176
     1
 62
     7
176
     1
 62
     7
176
     1
 90
        1
176
     1
 90
        1
176
     1
 40
40.0
176
     1
 90
        8
176
     1
 62
     7
176
     1
 40
1.0
176
     1
 90
        1
176
     1
 90
        6
176
     1
 90
        2
176
     1
 62
     7
176
     1
 90
        3
176
     1
 90
        0
176
     1
 90
        0
176
     1
290
     0
176
     1
 90
        1
176
     1
 40
0.0
176
     1
 90
        0
176
     1
290
     0
176
     1
290
     1
176
     1
290
     1
176
     1
290
     0
176
     1
290
     0
176
     1
290
     0
176
     1
290
     0
176
     1
290
     0
176
     1
290
     0
176
     1
 90
       50
176
     1
 40
0.0
176
     1
 40
1.0
176
     1
 90
        0
176
     1
 62
    18
420
        0
176
     1
 90
       50
176
     1
 90
        3
176
     1
 62
     5
420
      255
176
     1
290
     0
176
     1
 90
       50
176
     1
 90
       50
176
     1
 90
       50
176
     1
290
     0
176
     1
 90
       50
176
     1
 62
   256
176
     0
 40
1.0
176
     0
 90
        2
176
     1
  1
strokes_ogs.tif
176
     1
290
     0
176
     1
 40
1.0
176
     1
 40
1.0
176
     1
  0
VISUALSTYLE
  5
1F0
102
{ACAD_REACTORS
330
EF
102
}
330
EF
100
AcDbVisualStyle
  2
Sketchy
 70
    24
177
     3
291
     0
 70
    58
 90
        1
176
     1
 90
        2
176
     1
 90
        2
176
     1
 90
        0
176
     1
 40
0.6
176
     1
 40
30.0
176
     1
 62
     7
420
 16777215
176
     1
 90
        2
176
     1
 90
        2
176
     1
 62
     7
176
     1
 62
     7
176
     1
 90
        1
176
     1
 90
        1
176
     1
 40
40.0
176
     1
 90
       11
176
     1
 62
     7
176
     1
 40
1.0
176
     1
 90
        1
176
     1
 90
        6
176
     1
 90
        2
176
     1
 62
     7
176
     1
 90
        6
176
     1
 90
        0
176
     1
 90
        0
176
     1
290
     0
176
     1
 90
        1
176
     1
 40
0.0
176
     1
 90
        0
176
     1
290
     0
176
     1
290
     1
176
     1
290
     1
176
     1
290
     0
176
     1
290
     0
176
     1
290
     0
176
     1
290
     0
176
     1
290
     0
176
     1
290
     0
176
     1
 90
       50
176
     1
 40
0.0
176
     1
 40
1.0
176
     1
 90
        0
176
     1
 62
    18
420
        0
176
     1
 90
       50
176
     1
 90
        3
176
     1
 62
     5
420
      255
176
     1
290
     0
176
     1
 90
       50
176
     1
 90
       50
176
     1
 90
       50
176
     1
290
     0
176
     1
 90
       50
176
     1
 62
   256
176
     0
 40
1.0
176
     0
 90
        2
176
     1
  1
strokes_ogs.tif
176
     1
290
     0
176
     1
 40
1.0
176
     1
 40
1.0
176
     1
  0
VISUALSTYLE
  5
FC
102
{ACAD_REACTORS
330
EF
102
}
330
EF
100
AcDbVisualStyle
  2
Thicken
 70
    13
177
     3
291
     1
 70
    58
 90
        2
176
     1
 90
        2
176
     1
 90
        1
176
     1
 90
        0
176
     1
 40
0.6
176
     1
 40
30.0
176
     1
 62
     7
420
 16777215
176
     1
 90
        1
176
     1
 90
        4
176
     1
 62
     7
176
     1
 62
   257
176
     1
 90
        1
176
     1
 90
        1
176
     1
 40
1.0
176
     1
 90
       12
176
     1
 62
     7
176
     1
 40
1.0
176
     1
 90
        1
176
     1
 90
        6
176
     1
 90
        2
176
     1
 62
     7
176
     1
 90
        5
176
     1
 90
        0
176
     1
 90
        0
176
     1
290
     0
176
     1
 90
        1
176
     1
 40
0.0
176
     1
 90
        0
176
     1
290
     0
176
     1
290
     1
176
     1
290
     1
176
     1
290
     0
176
     1
290
     0
176
     1
290
     0
176
     1
290
     0
176
     1
290
     0
176
     1
290
     0
176
     1
 90
       50
176
     1
 40
0.0
176
     1
 40
1.0
176
     1
 90
        0
176
     1
 62
    18
420
        0
176
     1
 90
       50
176
     1
 90
        3
176
     1
 62
     5
420
      255
176
     1
290
     0
176
     1
 90
       50
176
     1
 90
       50
176
     1
 90
       50
176
     1
290
     0
176
     1
 90
       50
176
     1
 62
   256
176
     0
 40
1.0
176
     0
 90
        2
176
     1
  1
strokes_ogs.tif
176
     1
290
     0
176
     1
 40
1.0
176
     1
 40
1.0
176
     1
  0
VISUALSTYLE
  5
F6
102
{ACAD_REACTORS
330
EF
102
}
330
EF
100
AcDbVisualStyle
  2
Wireframe
 70
     5
177
     3
291
     0
 70
    58
 90
        0
176
     1
 90
        2
176
     1
 90
        0
176
     1
 90
        0
176
     1
 40
0.6
176
     1
 40
30.0
176
     1
 62
     7
420
 16777215
176
     1
 90
        1
176
     1
 90
        4
176
     1
 62
     7
176
     1
 62
   257
176
     1
 90
        1
176
     1
 90
        1
176
     1
 40
1.0
176
     1
 90
        0
176
     1
 62
   257
176
     1
 40
1.0
176
     1
 90
        1
176
     1
 90
        6
176
     1
 90
        2
176
     1
 62
     7
176
     1
 90
        3
176
     1
 90
        0
176
     1
 90
        0
176
     1
290
     0
176
     1
 90
        1
176
     1
 40
0.0
176
     1
 90
        0
176
     1
290
     0
176
     1
290
     1
176
     1
290
     1
176
     1
290
     0
176
     1
290
     0
176
     1
290
     0
176
     1
290
     0
176
     1
290
     0
176
     1
290
     0
176
     1
 90
       50
176
     1
 40
0.0
176
     1
 40
1.0
176
     1
 90
        0
176
     1
 62
    18
420
        0
176
     1
 90
       50
176
     1
 90
        3
176
     1
 62
     5
420
      255
176
     1
290
     0
176
     1
 90
       50
176
     1
 90
       50
176
     1
 90
       50
176
     1
290
     0
176
     1
 90
       50
176
     1
 62
   256
176
     0
 40
1.0
176
     0
 90
        2
176
     1
  1
strokes_ogs.tif
176
     1
290
     0
176
     1
 40
1.0
176
     1
 40
1.0
176
     1
  0
VISUALSTYLE
  5
1F1
102
{ACAD_REACTORS
330
EF
102
}
330
EF
100
AcDbVisualStyle
  2
X-Ray
 70
    25
177
     3
291
     0
 70
    58
 90
        2
176
     1
 90
        2
176
     1
 90
        1
176
     1
 90
        1
176
     1
 40
0.5
176
     1
 40
30.0
176
     1
 62
     7
420
 16777215
176
     1
 90
        1
176
     1
 90
        0
176
     1
 62
     7
176
     1
 62
   257
176
     1
 90
        1
176
     1
 90
        1
176
     1
 40
1.0
176
     1
 90
        8
176
     1
 62
     7
176
     1
 40
1.0
176
     1
 90
        1
176
     1
 90
        6
176
     1
 90
        2
176
     1
 62
     7
176
     1
 90
        3
176
     1
 90
        0
176
     1
 90
        0
176
     1
290
     0
176
     1
 90
       13
176
     1
 40
0.0
176
     1
 90
        0
176
     1
290
     0
176
     1
290
     1
176
     1
290
     1
176
     1
290
     0
176
     1
290
     0
176
     1
290
     0
176
     1
290
     0
176
     1
290
     0
176
     1
290
     0
176
     1
 90
       50
176
     1
 40
0.0
176
     1
 40
1.0
176
     1
 90
        0
176
     1
 62
    18
420
        0
176
     1
 90
       50
176
     1
 90
        3
176
     1
 62
     5
420
      255
176
     1
290
     0
176
     1
 90
       50
176
     1
 90
       50
176
     1
 90
       50
176
     1
290
     0
176
     1
 90
       50
176
     1
 62
   256
176
     0
 40
1.0
176
     0
 90
        2
176
     1
  1
strokes_ogs.tif
176
     1
290
     0
176
     1
 40
1.0
176
     1
 40
1.0
176
     1
  0
DICTIONARYVAR
  5
146
102
{ACAD_REACTORS
330
5E
102
}
330
5E
100
DictionaryVariables
280
     0
  1
1:1
  0
DICTIONARYVAR
  5
259
102
{ACAD_REACTORS
330
5E
102
}
330
5E
100
DictionaryVariables
280
     0
  1
3.500000
  0
DICTIONARYVAR
  5
25A
102
{ACAD_REACTORS
330
5E
102
}
330
5E
100
DictionaryVariables
280
     0
  1
acadiso.lin
  0
DICTIONARYVAR
  5
145
102
{ACAD_REACTORS
330
5E
102
}
330
5E
100
DictionaryVariables
280
     0
  1
STANDARD
  0
DICTIONARYVAR
  5
84
102
{ACAD_REACTORS
330
5E
102
}
330
5E
100
DictionaryVariables
280
     0
  1
STANDARD
  0
DICTIONARYVAR
  5
227
102
{ACAD_REACTORS
330
5E
102
}
330
5E
100
DictionaryVariables
280
     0
  1
Metric50
  0
DICTIONARYVAR
  5
228
102
{ACAD_REACTORS
330
5E
102
}
330
5E
100
DictionaryVariables
280
     0
  1
Metric50
  0
DICTIONARYVAR
  5
5F
102
{ACAD_REACTORS
330
5E
102
}
330
5E
100
DictionaryVariables
280
     0
  1
2
  0
DICTIONARYVAR
  5
63
102
{ACAD_REACTORS
330
5E
102
}
330
5E
100
DictionaryVariables
280
     0
  1
1
  0
DICTIONARYVAR
  5
1AE
102
{ACAD_REACTORS
330
5E
102
}
330
5E
100
DictionaryVariables
280
     0
  1
0
  0
DICTIONARYVAR
  5
1AF
102
{ACAD_REACTORS
330
5E
102
}
330
5E
100
DictionaryVariables
280
     0
  1
0
  0
DICTIONARY
  5
205
330
22
100
AcDbDictionary
280
     1
281
     1
  0
DICTIONARY
  5
1F9
330
ED
100
AcDbDictionary
280
     1
281
     1
  3
FBXASSET
360
1FA
  0
DICTIONARY
  5
1F7
330
EC
100
AcDbDictionary
280
     1
281
     1
  3
FBXASSET
360
1F8
  0
DICTIONARY
  5
173
330
EE
100
AcDbDictionary
280
     1
281
     1
  3
BUMPTILE
360
175
  3
DIFFUSETILE
360
174
  3
FBXASSET
360
1FB
  3
OPACITYTILE
360
176
  3
REFLECTIONTILE
360
177
  0
DICTIONARY
  5
162
330
7F
100
AcDbDictionary
280
     1
281
     1
  3
ACAD_ROUNDTRIP_2008_TABLESTYLE_CELLSTYLEMAP
360
88A
  0
XRECORD
  5
1FA
102
{ACAD_REACTORS
330
1F9
102
}
330
1F9
100
AcDbXrecord
280
     1
 70
     1
 90
429727718
  1
D62C5603-E3A1-4AEA-B7FB-FE5D8D0755AF
310
504B03040A0000080000CC70623B3DEE336E79000000790000001B0000006175746F6465736B2D64657369676E2D7061636B6167652E786D6C3C3F786D6C2076657273696F6E3D22312E302220656E636F64696E673D227574662D3822203F3E3C666F726D6174733E3C666F726D61743E687474703A2F2F736368656D612E
310
6175746F6465736B2E636F6D2F64657369676E2D7061636B6167652F323030393C2F666F726D61743E3C2F666F726D6174733E504B0304140006080800CC70623BD486FD9CA0000000F4000000130000005B436F6E74656E745F54797065735D2E786D6C7D8EC10E82300C865F65E91D8A1E8C310C0EEA1BF002731658846E
310
D98AC1B77784ABF1D8FE5FBFBF75BBCE937A534CCEB38643598122B6FEE978D0B0485F9C41B54DDD7D022595594E1A469170414C76A4D9A4D207E29CF43ECE46F218070CC6BECC4078ACAA135ACF422C856C0E68EA1BF5669944DDD7BCDE7B1F8E415D77AECB980613C2E4AC91FC167A2B244592486606FC29C8FD7F045B9A
310
EF7053A7E60B504B0304140006080800CC70623B853B8169EB0000007C01000008000000636F72652E786D6C8D90416EC3201045AF62CDB6C206821CC7C244919D9CA01740401C94182C03558F5F9C3852BBEB6A467FFE9B197D7EFC9E1EC5975982F5AE035262288C535E5B377690E21535501C055FBC8FBF6C503839990E
310
5619041F179FE64D52DE45E362569DD7661365082642A11EB9E920A89B99642953CC8E702F67A9EE7234257977194EC9EAE275C4EABCCF5EAD5940D4AC6F0E35A568B8F43562CD7046CD199FD07E60174276A7BE677B5EADB0E0D14EEFFB6A31321A0D82627C4084204C3F096B71DD52F6819B16635EADF63F509AF53FA164
310
5DDCD1EDDD17164090FCC8732078B56691CB33A85CD7DCC40F504B0304140006080800CC70623B55019EA25F0000007C00000007000000636E782E786D6C4DCB3B0E80201045D1AD90E915ED2CF8AC45050C11660C8261F98AB1B07AC9C97D42D718D865D3E909258CFD00CCE24AC6E326A164D74DC0B4128928FF32603847
310
2BA13128B1252AC747C6BAB984FC68F0B87FE8960A5C09FE86CFB69FBA01504B0304140006080800CC70623BDBABAAF470010000D40300000C0000006662782F636F72652E786D6CC553D16E823014FD95A6AF4B694182CC941A83FA05FB810A9511A125A5257EFE2E82712ECEB8A7F100CD39F7F69E734AF9FADC366850B6
310
AF8DCE7018308C942E4C59EB2AC3DE1D498AD15A706B8CFB56869196ADCAF00863C12B6B7C374385D14E6907A836A59A41D9F7CA615434B0C8705F7CAA5606D23BA8E84F41278B93AC54100640439DE0BDB320004D43C63716C7C399D30917DCFBBA9CD9BA8469F5B156168B24CED3F7248AC8769F27244EB73B92EED8862C
310
B7F13E0C179B3C8F979C8ECD82BBBABDAA2BAC924E9558448CBD9330242CFA08E3154B5651FCC6D215639C8EE5774DBE2B5F6CF2B5768B68963BB5F5588420E442FC700B1139D4CB01F450C1E918227C2E09DF070D8140C84E1E9AAB8F1340832A9CB13130A5F1376A908D57309505ECF2A0DF179C4E9D30F5B239B87E3823
310
7A79C6F31DE1A8A5AEC08474B03C7837EAE4938639B44E5932B833D2C6B6B279CDC613877FA26EE21F4A2A4C63EC7F29A2F301D1F9F7A0E37D145F504B0304140006080800CC70623B9C113CC27E0000009D0000000B0000006662782F636E782E786D6C4DCCDF0A83201C86E15B91DFB94BFB330DD428C8FB886521330DA7
310
6397BF1A1DECE883878F57749FCDA1B7892F1BBC047A23808C7F84D9FA55424E0BE6803A256208E9EF06C84F9B91703228B1C690F78B66B34CD9A5439DF5CF0BFBF65E35BCA1B8D6A5C6F540381E886698B5741C695F9503EBA150A2F8958E3DC3EA0B504B0304140006080800CC70623B7DF2F77C2A010000120200003100
310
00006662782F41393633353835312D344632462D344230382D423046372D3739314545314133324237412F636F72652E786D6C8D51DB8EC22014FC15C2939B0D2DB4B45643319AE817EC0F6041255A68B86CFCFC856D4D76DF7CE190393373060EDB3DC707F856CE6B6B7A480A0C81328395DA5C7B18C3057510EC3873D686
310
3F34088C18550F330C39BB3A1BA7051AAC09CA84841A2BD5020AEF55806078A44B0FFD7053A328440C89E1EFC52486BBB8AA8214A99D789CF9E05200300FC927E4FB4D5B375D43103D5527440FB843077C5AA3F5861C8F645F5787F59E95B390B318B55CE45AA638FAA2957BD7248B390B7A7CC51F9C124149C82B8C378810
310
84AB2F42B7B8DD56F413775B8C5999E9FF4471926F8AA236A1AE96B8B3CC434E5839373893369E1FAF30EA395917409EB7F26AF8801C171837A4A6AC9C89E9F9C9B1A58BA30FD6A5EF5DDDCF894B9AD9B6A59C957943A9FCAE2FD5BC4DFE03504B0304140006080800CC70623BAD7543B64E01000033030000300000006662
310
782F41393633353835312D344632462D344230382D423046372D3739314545314133324237412F636E782E786D6CD593CD6EC32010845F0571AD6CE3D48AD20813A9873E410FBD12D82434182C7EAAE6EDBB2424CD25871E7B41D6EC30B3FA84F9E67BB2E40B4234DE8DB46F1925E094D7C6ED479AD3AE5951B2113C789FEE
310
6C943839C1488B4C05DF079FE72A69D8C96C13AAD6B8631503449F83828872B949AC57D26200B826A308D316B4064D6E46FCDA41C05550DC9E483A00797BFD207EFB092A45DE9514C1BBD22178396BD39D891265658C238DEA00936C654E5E433CB65A26D9F6EDB5EBC14EBF49A45CB856E66048291F6939A9A81BB5C89177
310
38143CA680F4AA299D66A042CEB3354A2684DC9D8D178FE0D9B8B41CAAD720F880EE7EF93C0C18769E099ECC04D5A102C8049A8A05632F4DDF376CF1DE0F6BB65C2F8627B65A33C6BB62177CEBBDAD973006829F89F22E814B54F4BC2BE347F8AA8F681390B50FA73F804400B5F542E796F19FF974E7F78DB802FE05E20750
310
4B0304140006080800CC70623BE75B7789680500003C100000340000006662782F41393633353835312D344632462D344230382D423046372D3739314545314133324237412F6F626A656374732E786D6CAD575B8F9B3818FD2B887D06C22499CB8AA1CA655245D5B455A356FB305264C061D8018C6C3393D95FBFC7600890
310
A4CD5EF210B0B1BFEBF98E3F7B1FF6596ABC522E1296DF9BAE3D320D9A872C4AF2F8DE2CE5CEBA358D0FBEC719939D65A691938CDE9B6ADAF4BD98B3B2D05311DD91329583D9D5FC0F438434A7A611A644887B5384CF34233629258BA878B12322891DEFF6B66BD70BFB62634E8AE781D082709A4B588AF91C528CDA28B73F
310
1C998EEF39EABBEFA97FBD6A7C7E9553F9D3D79FE442923C3C523610337627CB87ABE99D359D4CC6D6E4FACAB5E6ABF9D2726FC6A3C5F56271377BB88362213924694B38DD99FE47C48627A1E7D49F5A8BB5E1A74C0A599ED3B0F21F1E56366B89112D681E218F0915D0D6F17AD41FBA2A369DCF6335D62ABBD39779D5DDD1
310
11D4D8DE3CBB96B2E04FB8202E41051754A1AA8E8F76B4C6DFE810B580B1547F4B84911149794252234D024EF8BBE963A95AE27B3D310A9D5C215C7960FAEE415ED75694C6AFB17BCACA5D99A60A9AA65F217B0BFC53292ACB92BF283FAD0D3621576592CB5BED907C2FA8E9DF794E35E97BEA31BED21FEB401ABB94C44839
310
DCACBF0E1C5DA8DA5B2F4DFFD32AD86F543D9E565E7056502E157C00AD2671CD534549AB752FCA9CDA00677A313F04E51B22FF19E57B300579E3C97EB29F682D92935CEC18CF901B7B54FD8C51F362B56FC72FE0B3C1EAE335EDCCBF5AEC39ADB17DC238973F804BA5E6F6BFE7AF1FB32E523BE9F3BD571418E3631DCA4D48
310
5250CF639223210A9446CA30052EDF057BD35F8329C1ECD84552BF0DC8D18BE7BCE23BFE6BD960AB4A7DE79923A103BEBD80F911CBAA2C60DB19B01CF164A5583B772EE6D3FFA56666CBCDA74DC97724A48F9A58967497E489C4D979006FD7A05E227A1EBDD0F737C623387A9C844D3709995625106D157315F8B8392CD4E0
310
A0B9A720C4BE9829CEF37EA1E13111214D53925356365ADA634861B52519DD27A00AEB808EAF0628E6F435519D446F45CF2C9CF5214F0A15B2F6D06B79DA3EE3CBF7F56780D2F4E7EF73A0F5E5B02A38D07DC852C6B7C1FBB6664213E0C39E3EBA7FF4E1AD23EA2829407C85E586727488B751B2DB9502BC7B228A3FD68B6E
310
A65A22397E690AA8D158D7E404EC8CDA235CC3B7D1898680131CEC2CDF2638C65196279577750F15884AEE19F94199155B92B13297978469D4F8D358DF0AEF7631E28DC8F0D9F437D5D39A83B2231A1D52D543813A824EF8D44BCFF2FA6A31BD1E8DAD87F1CCB526B3879935BF59CDADD5C37479BB1CDD4CA7B3556B516589
310
EF352754B706114D9C885EC9131DE6EFEB43D99AFE2391C2F958179413D7CFEF6B1B6DB1E7600F00DE6E5C67454A339A4BA2E0FBA85ED26F045D454F463DBFCE484C2F90F2E5E3666003662ED8F755951A7D1BECD5B30B550B2785C8E7320B7292A4838DDA71BBC863ED7613CAF659337A3354231D4FF4A182A54904C2898C
310
98B28C4AD0CE056CCF332A80986E571EE9DBC305BB5FEB7E509220A58D25CF042D712A806AC0AD0C657FDEF80D2D9CEAA2EE4D1C76F60BFE74219A06527D6F82DF6412526107381E55E353090704D085B52408A8913C4ED159D79BDA71BB4BC506F4831350EB6F975CD22D69BF7AC49B91A2C0A9DDA3D5CA36AD20FC478E37
310
E61844E2352865EBCB61A275A65283CAAA9DD27703B4102F5AF51EF5F573B75CBB5AD38BC845F7A49F82A0966A49C2E3EA5EA0ECD326CD965F1DB402C6FA8B51A4658C5C5E2EC9E214602E55810345408596591009A82E7E7FFACA19EEA299B14A0081A705CB3296EBC14CDF658DCD336EA6D1136881AAEB87B81AB9EE53D5
310
F5EB8BC8362082DA24122F98680A4E7930C01A0079749CEA14382A0783E5EBA5A10F8C098456A03D6A4AEB6BB881E2513747552A5DB22C7EDAF83BD5528081A365F7FF06504B0304140006080000CC70623B000000000000000000000000350000006662782F41393633353835312D344632462D344230382D423046372D37
310
39314545314133324237412F76657274696365732E62696E504B0304140006080800CC70623BF270F1330600000004000000360000006662782F41393633353835312D344632462D344230382D423046372D3739314545314133324237412F747269616E676C65732E62696E636660600000504B0304140006080000CC7062
310
3B000000000000000000000000370000006662782F41393633353835312D344632462D344230382D423046372D3739314545314133324237412F617474726962757465732E62696E504B0304140006080800CC70623B08DA0BD19000000041010000360000006662782F41393633353835312D344632462D344230382D4230
310
46372D3739314545314133324237412F6469726563746F72792E786D6C858F410AC3201045AF22B36F53E9A60B35CBEEBAE80D244E44489C6234F4F835464A48035D0DF398FF9F8AF63D0E6CC63039F212F8F9020C7D47C6792B21C5FE7403D62A1188E2E60C98D7234A5830286103A55745067B9D86B8A3CF9C7F90C11DE6
310
07FB144396D7B6A82D282E9A152AD114D5EF2CB866EEE831B8EEA07A7BB5A8D7D61A2BAAEB7FD5F70921FF497D00504B0304140006080800CC70623BEDD1DC58FD000000A00100003B0000006662782F41393633353835312D344632462D344230382D423046372D3739314545314133324237412F7265736F75726365732F
310
636F72652E786D6C8D504B6E833010BD0A9A6D65B00922041947112427E8052C33A156828DFCA97AFC9A40A576D7CDCCE87D344F8F9FBFE667F689CE6B6B3A6039850C8DB2A336530731DC4903D95970676DF82583CCC8193B5861107C72362E3BA4AC096842428D1D7107A5F7182053CF7474E0D507CE32973124857FE48B
310
540F3961CEF244279DE03EB81420DB9EAC1384436FA353E879B1B182C7A8C75DA3C7F453DF353A1075D537A7BA6464B8F535A99AE14A9A2BBD90E350DD183B5CFABE3AF262350B1EF4FC9351399401471025A527C218A1E53BAB5A5AB765F5469B96525EACF23FA6B88CFF34456DC2A1DCE36E360F82A5202F42F062ED2BAD
310
579969AFDD8A6F504B010214000A0000080000CC70623B3DEE336E79000000790000001B00000000000000000000000000000000006175746F6465736B2D64657369676E2D7061636B6167652E786D6C504B01021400140006080800CC70623BD486FD9CA0000000F40000001300000000000000000000000000B20000005B
310
436F6E74656E745F54797065735D2E786D6C504B01021400140006080800CC70623B853B8169EB0000007C010000080000000000000000000000000083010000636F72652E786D6C504B01021400140006080800CC70623B55019EA25F0000007C000000070000000000000000000000000094020000636E782E786D6C504B
310
01021400140006080800CC70623BDBABAAF470010000D40300000C00000000000000000000000000180300006662782F636F72652E786D6C504B01021400140006080800CC70623B9C113CC27E0000009D0000000B00000000000000000000000000B20400006662782F636E782E786D6C504B01021400140006080800CC70
310
623B7DF2F77C2A010000120200003100000000000000000000000000590500006662782F41393633353835312D344632462D344230382D423046372D3739314545314133324237412F636F72652E786D6C504B01021400140006080800CC70623BAD7543B64E010000330300003000000000000000000000000000D2060000
310
6662782F41393633353835312D344632462D344230382D423046372D3739314545314133324237412F636E782E786D6C504B01021400140006080800CC70623BE75B7789680500003C10000034000000000000000000000000006E0800006662782F41393633353835312D344632462D344230382D423046372D3739314545
310
314133324237412F6F626A656374732E786D6C504B01021400140006080000CC70623B0000000000000000000000003500000000000000000000000000280E00006662782F41393633353835312D344632462D344230382D423046372D3739314545314133324237412F76657274696365732E62696E504B01021400140006
310
080800CC70623BF270F133060000000400000036000000000000000000000000007B0E00006662782F41393633353835312D344632462D344230382D423046372D3739314545314133324237412F747269616E676C65732E62696E504B01021400140006080000CC70623B0000000000000000000000003700000000000000
310
000000000000D50E00006662782F41393633353835312D344632462D344230382D423046372D3739314545314133324237412F617474726962757465732E62696E504B01021400140006080800CC70623B08DA0BD1900000004101000036000000000000000000000000002A0F00006662782F41393633353835312D344632
310
462D344230382D423046372D3739314545314133324237412F6469726563746F72792E786D6C504B01021400140006080800CC70623BEDD1DC58FD000000A00100003B000000000000000000000000000E1000006662782F41393633353835312D344632462D344230382D423046372D3739314545314133324237412F7265
310
736F75726365732F636F72652E786D6C504B0506000000000E000E0080040000641100000000
  0
XRECORD
  5
1F8
102
{ACAD_REACTORS
330
1F7
102
}
330
1F7
100
AcDbXrecord
280
     1
 70
     1
 90
429727718
  1
30362254-06B7-45E0-A893-8CFA70E3D6BC
310
504B03040A0000080000CC70623B3DEE336E79000000790000001B0000006175746F6465736B2D64657369676E2D7061636B6167652E786D6C3C3F786D6C2076657273696F6E3D22312E302220656E636F64696E673D227574662D3822203F3E3C666F726D6174733E3C666F726D61743E687474703A2F2F736368656D612E
310
6175746F6465736B2E636F6D2F64657369676E2D7061636B6167652F323030393C2F666F726D61743E3C2F666F726D6174733E504B0304140006080800CC70623BD486FD9CA0000000F4000000130000005B436F6E74656E745F54797065735D2E786D6C7D8EC10E82300C865F65E91D8A1E8C310C0EEA1BF002731658846E
310
D98AC1B77784ABF1D8FE5FBFBF75BBCE937A534CCEB38643598122B6FEE978D0B0485F9C41B54DDD7D022595594E1A469170414C76A4D9A4D207E29CF43ECE46F218070CC6BECC4078ACAA135ACF422C856C0E68EA1BF5669944DDD7BCDE7B1F8E415D77AECB980613C2E4AC91FC167A2B244592486606FC29C8FD7F045B9A
310
EF7053A7E60B504B0304140006080800CC70623B1EC5D7A3EB0000007C01000008000000636F72652E786D6C8D90416EC3201045AF82665B6103C6756C6122AB4D4ED00B204C5C94182C03558F5F9C3852BBEB6A467FFE9B197D71FC9E6FE8CBACC17AD7032D0820E3B41FAD9B7A48F1820F808E52ACDEC75F36404ECDA687
310
4D0629A6D5A76597B477D1B89855E747B38B2A041301E95B6E7A08FAD3CCAA50296647B8168BD2573599823EBB0CA76447F43862C7BCCF5EAC59410E4DDD9C7973C2755553CCCFA4C603E3040F1565ED3B1FDE4E432BCA0D9622DAF9795FAF464533826484B498524CD807E51D79ED187F21878E10516EF63F505AC67F42C9
310
BA58B1FDDD071640D2FCC87D2045B96591CB3DA85CB7DCE40F504B0304140006080800CC70623B55019EA25F0000007C00000007000000636E782E786D6C4DCB3B0E80201045D1AD90E915ED2CF8AC45050C11660C8261F98AB1B07AC9C97D42D718D865D3E909258CFD00CCE24AC6E326A164D74DC0B4128928FF32603847
310
2BA13128B1252AC747C6BAB984FC68F0B87FE8960A5C09FE86CFB69FBA01504B0304140006080800CC70623B8C9102E971010000D40300000C0000006662782F636F72652E786D6CC5535B6E833010BC8AE5DF0A6C08340F1947A84D4ED00B38C6A128602363A31CBFCB234A53A551FA553EC09AD9F5CE8C31DB9E9B1AF5CA
310
7695D1198E428A91D2D214952E33ECDD315861B4E5CC1AE3BE9561A445A3323CC098B3D21ADFCE9034DA29ED00D5A6503328BA4E398C640D8B0C77F253352214DE4145770A5B214FA2546114020D759C75CE8200340D19DE981F0F6746269C33EFAB6266AB02A655C74A59CCF365BADC27CB5D902ED22848F6340DF238A141
310
BE88E2F57B92BFEDF23523433367AE6A2EEAA455C2A902F398D2751045018D3FA264435F3771F242571B4A1919CA6F9A7C5B3CD9E42BED16F12C776AEB308F40C848FC700B1139D4891EF410CEC810227CC6846F8386402064270EF5C5C709A05E49676C024C61FC95EA45ED154CA5211D1FF4FB8291A913A68E9B83EBBB33
310
E2A7673CDE118E5AE8124C0807CB8377834E366998436B950D7A7746DAD846D4CFD978E0F04FD455FC5D49D2D4C6FE9722321F10997F0F32DC47FE05504B0304140006080800CC70623BFFEA85907E0000009D0000000B0000006662782F636E782E786D6C4DCCD10A83201886E15B91FFDC95D95A811AB6F23E625948A6C3
310
E9D8E5AF46073BFAE0E1E365ED67B3E8ADC3CB78C7815C7240DA3DFC64DCC221C519D7805AC182F7F1EF06C88D9BE6703008B6049F9E274D7A1E938DBB5AE3D6131B2589BA0D3D965551E0B2EA732C9B9A624AAEB41E3A557677029960D9AFB4EF11165F504B0304140006080800CC70623B4FEEA4082C0100001202000031
310
0000006662782F39464131463745442D413632322D343644302D413938332D3331353338454246344243312F636F72652E786D6C8D515B6EC32010BC0AE2AB55850DD871ED0813254D72825EC00192A2C460F1A872FC42ED48ED5F7E00CDCECCCEB26C731F6FE05B39AFADE921293004CA082BB5B9F43086336A21D870E6AC
310
0D7F68109861543DCC30E4ECE26C9C164858139409093556AA051CBC570102714B8F1E7AF1A5C6A11862480C7F2DA6415C878B2A4891CA89C7990F2E050073937C42DE1DB7E4F87ED8A36D4329AA9B3D46DBAEAD504556557BD81DEBDD0761E52CE42C462D17B996298E3E6BE59E35C962CE821E1FF18553435012728A7187
310
0841987E927A8D9B35ADDF70BBC6989599FE4F1427F9A4286A132ABAC49D651EF234CD5CE04CDA78BA3DC2A8FB645D00B9DF8B57E215725C60BCA2A463E54C4CE327C7A65E1C7DB02E7DEFCBF594B864C5CA6CDBD49C957943E9FA5D5FBAF336F90F504B0304140006080800CC70623BAD7543B64E01000033030000300000
310
006662782F39464131463745442D413632322D343644302D413938332D3331353338454246344243312F636E782E786D6CD593CD6EC32010845F0571AD6CE3D48AD20813A9873E410FBD12D82434182C7EAAE6EDBB2424CD25871E7B41D6EC30B3FA84F9E67BB2E40B4234DE8DB46F1925E094D7C6ED479AD3AE5951B2113C
310
789FEE6C943839C1488B4C05DF079FE72A69D8C96C13AAD6B8631503449F83828872B949AC57D26200B826A308D316B4064D6E46FCDA41C05550DC9E483A00797BFD207EFB092A45DE9514C1BBD22178396BD39D891265658C238DEA00936C654E5E433CB65A26D9F6EDB5EBC14EBF49A45CB856E66048291F6939A9A81BB5
310
C8917738143CA680F4AA299D66A042CEB3354A2684DC9D8D178FE0D9B8B41CAAD720F880EE7EF93C0C18769E099ECC04D5A102C8049A8A05632F4DDF376CF1DE0F6BB65C2F8627B65A33C6BB62177CEBBDAD973006829F89F22E814B54F4BC2BE347F8AA8F681390B50FA73F804400B5F542E796F19FF974E7F78DB802FE05
310
E207504B0304140006080800CC70623B16AB87BA640500003C100000340000006662782F39464131463745442D413632322D343644302D413938332D3331353338454246344243312F6F626A656374732E786D6CAD575B6FA33818FD2B887DE6924B3BED8A326A92B68A663B534DD4D13E548A0C38942D60649B369D5FBFC7
310
600890A493BDE42160637FD7F31D7FF63E6FB3D478A55C242CBF3247B66B1A340F5994E4F19559CA8D75611A9F7D8F33263BCB4C232719BD32D5B4E97B316765A1A722BA21652A07B3B7B33F0D11D29C9A46981221AE4C113ED38CD8A4942CA2E2C58E882476BCD9DA23BB5ED8171B73523C0F841684D35CC252CCE79062D4
310
468DFA43D7747CCF51DF7D4FFDEB5593E3AB9CCA9FBEFE241792E4E19EB28198C968BAB8199F5D5A67D3E9C49A9E8F47D6EC76B6B0469F26EEFC7C3EBFBCBEB98462213924694B38DD98FE1D62C393D073EA4FADC5DAF04326852CCF6958F90F0F2B9BB5C48816348F90C7840A68EB78EDF68723159BCEE7891A6B95DDE9D3
310
BCEAEEE8086A6C6F9E5D4B59F0175C10A7A0820BAA5055C7473B5AE3CFDD452D602CD5DF12616444529E90D448938013FE6EFA58AA96F85E4F8C42275708571E98FE6827AF6B2B4AE3D7D83D64E5A64C53054DD3AF90BD06FEA9149565C94FCA0F6B834DC85599E4F2423B24DF0B6AFA979E534DFA9E7A4CC6FA631D486393
310
921829879BF5D781A373557BCB85E97FB90DB62B558F8795179C15944B051F40AB495CF35451D26A4727654E6D8033BD98EF82F21D91FF8AF2DD9982BCF1643BDD4EB516C9492E368C67C88DED563FC36D5EACF66DFF057C3658BDBFA69DF9578B3DA735B64F18C7F20770A9D45CFCF7FCF563D6456A277DBEF78A02637CA2
310
43B90A490AEAB94F72244481D24819A6C0E59B606BFA4B3025981DBB48EAB701D97BF19C577CC77F2D1B6C55A9EF3C732474C0B727303F625995056C3B02963D9EAC146BE78EC5FCEC7FA999EBC5EACBAAE41B12D27B4D2C0BBA49F244E2ECDC81B76B502F113D8F5EE8FB1BE3111CDD4FC2AA9B844CAB1288B68AB90A7CDC
310
1C166AB0D3DC5310625FCC14E779BFD0709F8890A629C9292B1B2DED31A4B0DA928CEE135085754027E3018A397D4D5427D15BD1330B677DC8934285AC3DF45A9EB68FF8F2B8FC0A509AFEECFD0FF2DE25CC6047F7214B195F07EFEB9A094D800F7BFAE8FED187B78EA8A3A400F115961BCAD1215E47C966530AF0EE8128FE
310
58CEBB996A8964FFA529A046635D9353B0336A8F700DDF46271A024E70B0B37C9DE01847591E54DED53D54202AB947E4076556AC49C6CA5C9E1226B7F1A7B1BE15DEED62C41B91E1B3E9AFAAA735036547343A925075041DF0A9979E893B391F8FCFA6967B3EFB644DCF6E5CEBFAE272625DCC6FAF3FB93793C5F90CE1EF57
310
407342756B10D1C489E8953CD1617E5CEECAD6F4EF8914CE5D5D504E5C3F1F9736DA62CFC11E00BCDDB8CC8A9466349744C1F75EBDA4DF09BA8A9E8C7A7E9991989E20E5DBDD6A6003664ED8F7A04A8DBE0DF6EAD9B9AA858342E47399053949D2C146EDB85DE4B176BB0965FBAC19BD19AA918E27FA50C1D22402E144464C
310
59462568E704B6E71915404CB72B8FF4EDE184DDAF753F284990D2C6926782963815403548A70C657FDEF80D2D9CEAA2AE4C1C76F60BFE74219A06527D6582DF6412526107381E55E353090704D085B52408D0933C4ED159D79BDA71BB4BC506F4831350EB6F979CD22D69BF7AC49B91A2C0A9DDA3D5CA36AD20FC478E37E6
310
1844E2352865EBCB6EA275A652E3836BE04EFB400BF1A2556F515F1FBB35B2AB35BD889C744FFA1004B5544B121E57F70215746DD2F5E2C1412B602CBF19455AC6C8E5E9922C4E01E65215385004546899059180EAFCF7A707CE7017CD8CDB0410789AB32C63B91E5CEBBBACB17AC6CD347A022D5075FD106377347AAABA7E
310
7D11590744509B44E205134DC1290F06580320F78E537D3D73540E06CB970B431F185308AD40BBD794D6D77003C5A36E8EAA54BA64597CD8F83BD552A080A365F7FF06504B0304140006080000CC70623B000000000000000000000000350000006662782F39464131463745442D413632322D343644302D413938332D3331
310
353338454246344243312F76657274696365732E62696E504B0304140006080800CC70623BF270F1330600000004000000360000006662782F39464131463745442D413632322D343644302D413938332D3331353338454246344243312F747269616E676C65732E62696E636660600000504B0304140006080000CC70623B
310
000000000000000000000000370000006662782F39464131463745442D413632322D343644302D413938332D3331353338454246344243312F617474726962757465732E62696E504B0304140006080800CC70623B08DA0BD19000000041010000360000006662782F39464131463745442D413632322D343644302D413938
310
332D3331353338454246344243312F6469726563746F72792E786D6C858F410AC3201045AF22B36F53E9A60B35CBEEBAE80D244E44489C6234F4F835464A48035D0DF398FF9F8AF63D0E6CC63039F212F8F9020C7D47C6792B21C5FE7403D62A1188E2E60C98D7234A5830286103A55745067B9D86B8A3CF9C7F90C11DE607
310
FB144396D7B6A82D282E9A152AD114D5EF2CB866EEE831B8EEA07A7BB5A8D7D61A2BAAEB7FD5F70921FF497D00504B0304140006080800CC70623B0D6EF93BFE000000A00100003B0000006662782F39464131463745442D413632322D343644302D413938332D3331353338454246344243312F7265736F75726365732F63
310
6F72652E786D6C8D50596E833010BD0A9ADFCA60B334011947A8694ED00B586642AC041B79A97AFC9A40A5F6AF3F33A3B7689E1E3F7DCD8FEC139DD7D6F4C0720A191A65476DA61E62B892236427C19DB5E1970C322367EC618541F0C9D9B8EC90B226A009093576C41D94DE63804C3DD2D18357379C652E63480A7FCF17A9
310
EE72C29CE5894E3AC17D702940B63D59270887DE46A7D0F36263058F518FBB468FE9A7BE6A7420864373B8D4873369AA8691FA421B3294352543C5CAF65C0F6FEF43CB8BD52C78D0F34F46E550061C419494B6843142CB0F5677F4B52BEB177AEC28E5C52AFF638ACBF84F53D42654E51E77B379102C05791282176B5F693D
310
CB4C7BED567C03504B010214000A0000080000CC70623B3DEE336E79000000790000001B00000000000000000000000000000000006175746F6465736B2D64657369676E2D7061636B6167652E786D6C504B01021400140006080800CC70623BD486FD9CA0000000F40000001300000000000000000000000000B20000005B
310
436F6E74656E745F54797065735D2E786D6C504B01021400140006080800CC70623B1EC5D7A3EB0000007C010000080000000000000000000000000083010000636F72652E786D6C504B01021400140006080800CC70623B55019EA25F0000007C000000070000000000000000000000000094020000636E782E786D6C504B
310
01021400140006080800CC70623B8C9102E971010000D40300000C00000000000000000000000000180300006662782F636F72652E786D6C504B01021400140006080800CC70623BFFEA85907E0000009D0000000B00000000000000000000000000B30400006662782F636E782E786D6C504B01021400140006080800CC70
310
623B4FEEA4082C0100001202000031000000000000000000000000005A0500006662782F39464131463745442D413632322D343644302D413938332D3331353338454246344243312F636F72652E786D6C504B01021400140006080800CC70623BAD7543B64E010000330300003000000000000000000000000000D5060000
310
6662782F39464131463745442D413632322D343644302D413938332D3331353338454246344243312F636E782E786D6C504B01021400140006080800CC70623B16AB87BA640500003C1000003400000000000000000000000000710800006662782F39464131463745442D413632322D343644302D413938332D3331353338
310
454246344243312F6F626A656374732E786D6C504B01021400140006080000CC70623B0000000000000000000000003500000000000000000000000000270E00006662782F39464131463745442D413632322D343644302D413938332D3331353338454246344243312F76657274696365732E62696E504B01021400140006
310
080800CC70623BF270F133060000000400000036000000000000000000000000007A0E00006662782F39464131463745442D413632322D343644302D413938332D3331353338454246344243312F747269616E676C65732E62696E504B01021400140006080000CC70623B0000000000000000000000003700000000000000
310
000000000000D40E00006662782F39464131463745442D413632322D343644302D413938332D3331353338454246344243312F617474726962757465732E62696E504B01021400140006080800CC70623B08DA0BD190000000410100003600000000000000000000000000290F00006662782F39464131463745442D413632
310
322D343644302D413938332D3331353338454246344243312F6469726563746F72792E786D6C504B01021400140006080800CC70623B0D6EF93BFE000000A00100003B000000000000000000000000000D1000006662782F39464131463745442D413632322D343644302D413938332D3331353338454246344243312F7265
310
736F75726365732F636F72652E786D6C504B0506000000000E000E0080040000641100000000
  0
XRECORD
  5
175
102
{ACAD_REACTORS
330
173
102
}
330
173
100
AcDbXrecord
280
     1
270
     1
271
     1
  0
XRECORD
  5
174
102
{ACAD_REACTORS
330
173
102
}
330
173
100
AcDbXrecord
280
     1
270
     1
271
     1
  0
XRECORD
  5
1FB
102
{ACAD_REACTORS
330
173
102
}
330
173
100
AcDbXrecord
280
     1
 70
     0
 90
1673772943
  1
ECE7A1D2-D628-4531-984C-D00F80459256
310
504B03040A0000080000CC70623B3DEE336E79000000790000001B0000006175746F6465736B2D64657369676E2D7061636B6167652E786D6C3C3F786D6C2076657273696F6E3D22312E302220656E636F64696E673D227574662D3822203F3E3C666F726D6174733E3C666F726D61743E687474703A2F2F736368656D612E
310
6175746F6465736B2E636F6D2F64657369676E2D7061636B6167652F323030393C2F666F726D61743E3C2F666F726D6174733E504B0304140006080800CC70623BD486FD9CA0000000F4000000130000005B436F6E74656E745F54797065735D2E786D6C7D8EC10E82300C865F65E91D8A1E8C310C0EEA1BF002731658846E
310
D98AC1B77784ABF1D8FE5FBFBF75BBCE937A534CCEB38643598122B6FEE978D0B0485F9C41B54DDD7D022595594E1A469170414C76A4D9A4D207E29CF43ECE46F218070CC6BECC4078ACAA135ACF422C856C0E68EA1BF5669944DDD7BCDE7B1F8E415D77AECB980613C2E4AC91FC167A2B244592486606FC29C8FD7F045B9A
310
EF7053A7E60B504B0304140006080800CC70623BD9DDAED0EC0000007C01000008000000636F72652E786D6C8D90416EC3201045AF82665B61836D9CD8C2444DD39CA01740405C94182C03558F5F9C3852BBEB6A467FFE9B197D7EF89E6EE8CB2CC17A37002D0820E394D7D68D03A478C17B4007C117EFE32F1B20272733C0
310
2A83E0E3E2D3BC49CABB685CCCAAF3DA6CA20CC14440EA969B0182FA34932C648AD911AEC52CD5558EA6A0CF2EC329598D1E47ACCEFBECC59A050463A7EA5833865FEBDD0E37353BE3EE8DBDE3F6786A48D375FBF6CC78B9C282473B3DEFABC5C86834888A900E538A49F5419B9EB47DD5BC907D4F082F57FB1F28CDFA9F50
310
B22ED6D5F6EE030B20687EE43E10BC5CB3C8E51E54AE6B6EE207504B0304140006080800CC70623B55019EA25F0000007C00000007000000636E782E786D6C4DCB3B0E80201045D1AD90E915ED2CF8AC45050C11660C8261F98AB1B07AC9C97D42D718D865D3E909258CFD00CCE24AC6E326A164D74DC0B4128928FF326038
310
472BA13128B1252AC747C6BAB984FC68F0B87FE8960A5C09FE86CFB69FBA01504B0304140006080800CC70623BA24EB22D72010000D40300000C0000006662782F636F72652E786D6CC5535B6E833010BC8AE5DF0A6C5E49888CA3A6694ED00B38E05014B091B1518EDFE511A5A9D228FD2A1F60CDEC7A67C6986DCE4D8D7A
310
69BA4AAB0C073EC548AA5C17952A33ECECD15B61B4E1CC686DBF9561A44423333CC098B3D268D7CE50AE9595CA02AA74216750749DB418E5352C32DCE59FB211BE70162ABA93DF8AFC244AE9073ED050C759670D0840D390E18DF9F1706664C23973AE2A66B62A605A75ACA4C13C4976E1364A12EF355A2EBD384AF65EFA96
310
BC7B8BED2EA6719AAE16FB8491A199335B351775B991C2CA02F390D2D40B028F861F41BCA68B7518BFD0D59A524686F29B26D7164F36B94AD9289CE54E6D1DE6010819891F6E21228B3AD1831EC219194284CF98F06DD01008846CC5A1BEF83801D4CBDC6A1303536877A57A513B0953A94FC707FDBE6064EA84A9E3E6E0FA
310
EE8CF0E9198F7784A316AA0413C2C2F2E0ECA0934D1AE6D05A69BCDE9E91D2A611F573361E38FC1375157F5752AE6B6DFE4B11990F88CCBF0719EE23FF02504B0304140006080800CC70623B408A7D3B7C0000009D0000000B0000006662782F636E782E786D6C4DCCD10A83201886E15B91FFDC552A92A0064DBC8F581632
310
D3703A76F9ABD1C18E3E78F878E5F0D9027ABBFCF2292AE86E2D20171F69F6715550CB827B40839639A5F2770314A7CD293819B45C73AAFB45B35BA61ACAA1C1C7E7855C58C15BC331339661262CC762340413D68D77DA5B42298546CBE6573AF60CEB2F504B0304140006080800CC70623B449FB9BD290100001202000031
310
0000006662782F36394639363044362D344446342D343946362D394244322D3234314243333846323333332F636F72652E786D6C8D515B6EC32010BC0AE22B55850D98B871848994463E412FE002495162B07854397EA176A4F62F3F2C9A9D991D587EB84F37F0AD7D30CEF6905418026DA553C65E7A98E219ED203808EE9D
310
8B7F6810D871D23D2C3014FCE25D9A57483A1BB58D19B54EE9151C43D0110279CB971E06F9A5A7B11A53CC8C70ADE6515EC78BAE4895DB992778883E0700CB907242D17643D7E2538BD869608875438BBAE38922CAC8F1BDD90DB4691A5E2F42C153326A951B95E398B3D1FE599322163C9AE9115F7A3D46ADA0A018778810
310
84E907617BDCEE297BC5BB3DC6BC2EF47FA234AB2745C9D8D8D035EE220B50105E2F0DC1954B9FB747187D9F9D8FA0CCDB042D5FA0C015C65B42DF78BD10F3F3B363CB56C7109DCFDFBBB97E662ED92EB62D13BC2E1BCAE5777DB9966D8A1F504B0304140006080800CC70623BAD7543B64E01000033030000300000006662
310
782F36394639363044362D344446342D343946362D394244322D3234314243333846323333332F636E782E786D6CD593CD6EC32010845F0571AD6CE3D48AD20813A9873E410FBD12D82434182C7EAAE6EDBB2424CD25871E7B41D6EC30B3FA84F9E67BB2E40B4234DE8DB46F1925E094D7C6ED479AD3AE5951B2113C789FEE
310
6C943839C1488B4C05DF079FE72A69D8C96C13AAD6B8631503449F83828872B949AC57D26200B826A308D316B4064D6E46FCDA41C05550DC9E483A00797BFD207EFB092A45DE9514C1BBD22178396BD39D891265658C238DEA00936C654E5E433CB65A26D9F6EDB5EBC14EBF49A45CB856E66048291F6939A9A81BB5C89177
310
38143CA680F4AA299D66A042CEB3354A2684DC9D8D178FE0D9B8B41CAAD720F880EE7EF93C0C18769E099ECC04D5A102C8049A8A05632F4DDF376CF1DE0F6BB65C2F8627B65A33C6BB62177CEBBDAD973006829F89F22E814B54F4BC2BE347F8AA8F681390B50FA73F804400B5F542E796F19FF974E7F78DB802FE05E20750
310
4B0304140006080800CC70623B8D05915C650500003B100000340000006662782F36394639363044362D344446342D343946362D394244322D3234314243333846323333332F6F626A656374732E786D6CAD575B6FA33814FE2B887D06429276DA1565D4266D158D3A339A6846FB502932E050B66023DB74D2FDF5FB190C01
310
9276B2973C046C8ECFF53B17071F77456EBD502133CEAE6CDF9DD81665314F32965ED995DA3A17B6F5310C04E7AA47665B8C14F4CAD6DB7618A48257A5D94AE89654B91AEDDEDDFC61C998326A5B714EA4BCB265FC440BE2924AF184CA6737218AB8E976E7FA6E4338649B0A523E8D98964450A6A029F619B8588D52FE7039
310
B1BD30F0F4F730D0FF866AF6369557DB33949F31A9088B0F848DD8CCFCF9F2767A76E99CCDE733677E3EF59D9BBB9BA5E37F984D16E78BC5E5F5ED25044B25C0C96822E8D60EEFE11B91C581D77CEA34368A1F5329E68CD1B8B61F16D63A1B8E092D294B10C78C4A48EB593D192E7DED9BDEE7995E1B91FDEDD3ACEA9FE831
310
6A756F9F7D4D79F4274C90A7A04248AA51D5F8C718DAE06FB2F75AC4796EBE65D22A88A22223B995679120E2D50E41AA49C260C046A35368846B0BECD0DFF3EBEB8AD4F835768F69B9ADF25C43D30E6B646F807FAA64AD59F61715C7A54127C4AACA98BA3006A9D792DAE165E0D59B61A01FB3A9F9D838D2DAE62445C86166
310
F37564E842E7DE6A69879FEEA2DD5AE7E371E1A5E025154AC307D06A03D73EB5978C58FFA4C8E9033066E0F3BD53BEC1F39F91BE7B55103791EDE6BBB991A2046172CB4581D8B893FA674DDA17A77B3B7C413D1B511FD2743BFF8A38F03A658705E3ADF8015C3A3417FF3D7E439FF591DA0B5F18BC20C1B8981957AE6392A3
310
F43C640C01D1A0B4728E2DD4F26DB4B3C3152A252A3B4E913CEC1C72F012782FF88EFF8637AA552DBEF76408E8A8DE9E50F9E1CB3A2DA0DB1B6039A893B56063DC5B3E3FFB5F72E67AB9FEB4AEC496C4F4C1149625DD662C53E89D7BF0F6151A046260D1337DFDC94502430F83B0EE07A130A224BCAD7DAE1D9FB6CD422FF6
310
920702629C4BB9AE79C12F243C6432A6794E18E5552BA56B431AAB5D91317302B2B071E86C3A42B1A02F999E24061403B5D0EB639195DA655DD3EBEAB4FB862DDF579F014AD0E73C22F99E28DA57FB98E75C6CA2D74D53086D600F4786E0FE3144B771A8A7B900F03594DB8A633CBC49B2EDB69228BB479CF863B5E807AAAB
310
23872F6DFEB4129B949CA33823F58830E86D65621E10047D9DB34D862E8EAC3C2ABC2F7B2C40D67CDFE01F5545B92105AF983AC54D93D69E56FB8E797F88913F898A9FEC705D3F9D1B54EC8426FB500D40A03BD0119B06E1B95DDC7EB8F6975367793EBD70E66733DFB9BC982F9CE564727731999F5D4ECFCE3B8D6A4DC2A0
310
6D50FD148437D110834A64C6CDDF57FBACB5C307A2A477DFE4939736CFEF2B175371E0E10CF0DD1D5C15654E0BCA14D1E87DD02FF93782A162C0A3D95F1524A52770F972BF1EE9809D13CE7DD599467F8ECE9ADD85CE85A34CD45355448C64F9E8A031DC2D596ACC6E5DD93D9B82DE2EF5CAF81363A8E47996A0DE24564A79
310
4115AACE09C55E14540231FDA13C319787134EBF34E3A022514E5B4D9E0826E25C02D5805B15ABE1BEF51B26383D445DD9E875EE33FE4C22DA16427D65A3BCA92CA6D28DD01DF5DC53330704308475351050232CCD31583787BA75774AFB06E5070DD0C8EF484E19968C5D83BA5B90B244D31E54D55A372320FE4786B7EA58
310
44E135AA5467CB7EA333A61683CC6A8C3257034C10CF46F40EF9F5BE59BE5BD30C3C72D235E95D10345C1D45445A5F0BB47E46A5EBE5570F9380B5FA629579952296A773720405982B9DE04011506178964401AA8BDF1FBF0A8EAB6861DD6580C0E38217056766716DAEB2D6FA0917D3E4116581EADB879C4E7CFFB11EFACD
310
3D641311495D92C8676CB409A72D18610D803CE8A626049E8EC1887CB5B44CC39883690DDA8399B4B9855B481E7D71D4A9D22F96E5BB73BF5793020C02137BF837504B0304140006080000CC70623B000000000000000000000000350000006662782F36394639363044362D344446342D343946362D394244322D32343142
310
43333846323333332F76657274696365732E62696E504B0304140006080800CC70623BF270F1330600000004000000360000006662782F36394639363044362D344446342D343946362D394244322D3234314243333846323333332F747269616E676C65732E62696E636660600000504B0304140006080000CC70623B0000
310
00000000000000000000370000006662782F36394639363044362D344446342D343946362D394244322D3234314243333846323333332F617474726962757465732E62696E504B0304140006080800CC70623B08DA0BD19000000041010000360000006662782F36394639363044362D344446342D343946362D394244322D
310
3234314243333846323333332F6469726563746F72792E786D6C858F410AC3201045AF22B36F53E9A60B35CBEEBAE80D244E44489C6234F4F835464A48035D0DF398FF9F8AF63D0E6CC63039F212F8F9020C7D47C6792B21C5FE7403D62A1188E2E60C98D7234A5830286103A55745067B9D86B8A3CF9C7F90C11DE607FB14
310
4396D7B6A82D282E9A152AD114D5EF2CB866EEE831B8EEA07A7BB5A8D7D61A2BAAEB7FD5F70921FF497D00504B0304140006080800CC70623BCA768048FE000000A00100003B0000006662782F36394639363044362D344446342D343946362D394244322D3234314243333846323333332F7265736F75726365732F636F72
310
652E786D6C8D50596E833010BD0A9ADFCA60D600328E9AA639412F609909B1126CE4A5EAF16B0295DABFFECC8CDEA2797AECF8353F924FB44E193D409E5248504B332A3D0D10FC95B4901C39B3C6F85F3248B49871801506CE266BC2B243D2688FDA47549B11775038871E12F988C7004EDE7016A9083E2ADC3D5D84BC8B09
310
D33C8D74D471E6BC8D0192EDC93A815B742658898E651BCB59086ADC356A8C3FD555A1055ED7E7E254D615792D0F075295F585746FF53B694EE78A565DD736979A65AB9933AFE69F8CD2A2F038022F28ED489E135A7CE4554F9BBEA85E68DB53CAB255FEC71496F19FA6A0B42F8B3DEE6673C0F318E4497096AD7DC5F52C33
310
EEB55BFE0D504B010214000A0000080000CC70623B3DEE336E79000000790000001B00000000000000000000000000000000006175746F6465736B2D64657369676E2D7061636B6167652E786D6C504B01021400140006080800CC70623BD486FD9CA0000000F40000001300000000000000000000000000B20000005B436F
310
6E74656E745F54797065735D2E786D6C504B01021400140006080800CC70623BD9DDAED0EC0000007C010000080000000000000000000000000083010000636F72652E786D6C504B01021400140006080800CC70623B55019EA25F0000007C000000070000000000000000000000000095020000636E782E786D6C504B0102
310
1400140006080800CC70623BA24EB22D72010000D40300000C00000000000000000000000000190300006662782F636F72652E786D6C504B01021400140006080800CC70623B408A7D3B7C0000009D0000000B00000000000000000000000000B50400006662782F636E782E786D6C504B01021400140006080800CC70623B
310
449FB9BD290100001202000031000000000000000000000000005A0500006662782F36394639363044362D344446342D343946362D394244322D3234314243333846323333332F636F72652E786D6C504B01021400140006080800CC70623BAD7543B64E010000330300003000000000000000000000000000D20600006662
310
782F36394639363044362D344446342D343946362D394244322D3234314243333846323333332F636E782E786D6C504B01021400140006080800CC70623B8D05915C650500003B10000034000000000000000000000000006E0800006662782F36394639363044362D344446342D343946362D394244322D32343142433338
310
46323333332F6F626A656374732E786D6C504B01021400140006080000CC70623B0000000000000000000000003500000000000000000000000000250E00006662782F36394639363044362D344446342D343946362D394244322D3234314243333846323333332F76657274696365732E62696E504B010214001400060808
310
00CC70623BF270F13306000000040000003600000000000000000000000000780E00006662782F36394639363044362D344446342D343946362D394244322D3234314243333846323333332F747269616E676C65732E62696E504B01021400140006080000CC70623B00000000000000000000000037000000000000000000
310
00000000D20E00006662782F36394639363044362D344446342D343946362D394244322D3234314243333846323333332F617474726962757465732E62696E504B01021400140006080800CC70623B08DA0BD190000000410100003600000000000000000000000000270F00006662782F36394639363044362D344446342D
310
343946362D394244322D3234314243333846323333332F6469726563746F72792E786D6C504B01021400140006080800CC70623BCA768048FE000000A00100003B000000000000000000000000000B1000006662782F36394639363044362D344446342D343946362D394244322D3234314243333846323333332F7265736F
310
75726365732F636F72652E786D6C504B0506000000000E000E0080040000621100000000
  0
XRECORD
  5
176
102
{ACAD_REACTORS
330
173
102
}
330
173
100
AcDbXrecord
280
     1
270
     1
271
     1
  0
XRECORD
  5
177
102
{ACAD_REACTORS
330
173
102
}
330
173
100
AcDbXrecord
280
     1
270
     1
271
     1
  0
CELLSTYLEMAP
  5
88A
102
{ACAD_REACTORS
330
162
102
}
330
162
100
AcDbCellStyleMap
 90
        3
300
CELLSTYLE
  1
TABLEFORMAT_BEGIN
 90
        5
170
     1
 91
        0
 92
    32768
 62
   257
 93
        1
300
CONTENTFORMAT
  1
CONTENTFORMAT_BEGIN
 90
        0
 91
        0
 92
      512
 93
        0
300

 40
0.0
140
1.0
 94
        5
 62
     0
340
11
144
6.0
309
CONTENTFORMAT_END
171
     1
301
MARGIN
  1
CELLMARGIN_BEGIN
 40
1.5
 40
1.5
 40
1.5
 40
1.5
 40
4.5
 40
4.5
309
CELLMARGIN_END
 94
        6
 95
        1
302
GRIDFORMAT
  1
GRIDFORMAT_BEGIN
 90
        0
 91
        1
 62
     0
 92
       -2
340
14
 93
        0
 40
1.125
309
GRIDFORMAT_END
 95
        2
302
GRIDFORMAT
  1
GRIDFORMAT_BEGIN
 90
        0
 91
        1
 62
     0
 92
       -2
340
14
 93
        0
 40
1.125
309
GRIDFORMAT_END
 95
        4
302
GRIDFORMAT
  1
GRIDFORMAT_BEGIN
 90
        0
 91
        1
 62
     0
 92
       -2
340
14
 93
        0
 40
1.125
309
GRIDFORMAT_END
 95
        8
302
GRIDFORMAT
  1
GRIDFORMAT_BEGIN
 90
        0
 91
        1
 62
     0
 92
       -2
340
14
 93
        0
 40
1.125
309
GRIDFORMAT_END
 95
       16
302
GRIDFORMAT
  1
GRIDFORMAT_BEGIN
 90
        0
 91
        1
 62
     0
 92
       -2
340
14
 93
        0
 40
1.125
309
GRIDFORMAT_END
 95
       32
302
GRIDFORMAT
  1
GRIDFORMAT_BEGIN
 90
        0
 91
        1
 62
     0
 92
       -2
340
14
 93
        0
 40
1.125
309
GRIDFORMAT_END
309
TABLEFORMAT_END
  1
CELLSTYLE_BEGIN
 90
        1
 91
        1
300
_TITLE
309
CELLSTYLE_END
300
CELLSTYLE
  1
TABLEFORMAT_BEGIN
 90
        5
170
     1
 91
        0
 92
        0
 62
   257
 93
        1
300
CONTENTFORMAT
  1
CONTENTFORMAT_BEGIN
 90
        0
 91
        0
 92
      512
 93
        0
300

 40
0.0
140
1.0
 94
        5
 62
     0
340
11
144
4.5
309
CONTENTFORMAT_END
171
     1
301
MARGIN
  1
CELLMARGIN_BEGIN
 40
1.5
 40
1.5
 40
1.5
 40
1.5
 40
4.5
 40
4.5
309
CELLMARGIN_END
 94
        6
 95
        1
302
GRIDFORMAT
  1
GRIDFORMAT_BEGIN
 90
        0
 91
        1
 62
     0
 92
       -2
340
14
 93
        0
 40
1.125
309
GRIDFORMAT_END
 95
        2
302
GRIDFORMAT
  1
GRIDFORMAT_BEGIN
 90
        0
 91
        1
 62
     0
 92
       -2
340
14
 93
        0
 40
1.125
309
GRIDFORMAT_END
 95
        4
302
GRIDFORMAT
  1
GRIDFORMAT_BEGIN
 90
        0
 91
        1
 62
     0
 92
       -2
340
14
 93
        0
 40
1.125
309
GRIDFORMAT_END
 95
        8
302
GRIDFORMAT
  1
GRIDFORMAT_BEGIN
 90
        0
 91
        1
 62
     0
 92
       -2
340
14
 93
        0
 40
1.125
309
GRIDFORMAT_END
 95
       16
302
GRIDFORMAT
  1
GRIDFORMAT_BEGIN
 90
        0
 91
        1
 62
     0
 92
       -2
340
14
 93
        0
 40
1.125
309
GRIDFORMAT_END
 95
       32
302
GRIDFORMAT
  1
GRIDFORMAT_BEGIN
 90
        0
 91
        1
 62
     0
 92
       -2
340
14
 93
        0
 40
1.125
309
GRIDFORMAT_END
309
TABLEFORMAT_END
  1
CELLSTYLE_BEGIN
 90
        2
 91
        1
300
_HEADER
309
CELLSTYLE_END
300
CELLSTYLE
  1
TABLEFORMAT_BEGIN
 90
        5
170
     1
 91
        0
 92
        0
 62
   257
 93
        1
300
CONTENTFORMAT
  1
CONTENTFORMAT_BEGIN
 90
        0
 91
        0
 92
      512
 93
        0
300

 40
0.0
140
1.0
 94
        2
 62
     0
340
11
144
4.5
309
CONTENTFORMAT_END
171
     1
301
MARGIN
  1
CELLMARGIN_BEGIN
 40
1.5
 40
1.5
 40
1.5
 40
1.5
 40
4.5
 40
4.5
309
CELLMARGIN_END
 94
        6
 95
        1
302
GRIDFORMAT
  1
GRIDFORMAT_BEGIN
 90
        0
 91
        1
 62
     0
 92
       -2
340
14
 93
        0
 40
1.125
309
GRIDFORMAT_END
 95
        2
302
GRIDFORMAT
  1
GRIDFORMAT_BEGIN
 90
        0
 91
        1
 62
     0
 92
       -2
340
14
 93
        0
 40
1.125
309
GRIDFORMAT_END
 95
        4
302
GRIDFORMAT
  1
GRIDFORMAT_BEGIN
 90
        0
 91
        1
 62
     0
 92
       -2
340
14
 93
        0
 40
1.125
309
GRIDFORMAT_END
 95
        8
302
GRIDFORMAT
  1
GRIDFORMAT_BEGIN
 90
        0
 91
        1
 62
     0
 92
       -2
340
14
 93
        0
 40
1.125
309
GRIDFORMAT_END
 95
       16
302
GRIDFORMAT
  1
GRIDFORMAT_BEGIN
 90
        0
 91
        1
 62
     0
 92
       -2
340
14
 93
        0
 40
1.125
309
GRIDFORMAT_END
 95
       32
302
GRIDFORMAT
  1
GRIDFORMAT_BEGIN
 90
        0
 91
        1
 62
     0
 92
       -2
340
14
 93
        0
 40
1.125
309
GRIDFORMAT_END
309
TABLEFORMAT_END
  1
CELLSTYLE_BEGIN
 90
        3
 91
        2
300
_DATA
309
CELLSTYLE_END
  0
ENDSEC
  0
SECTION
  2
ACDSDATA
 70
     2
 71
     8
  0
ACDSSCHEMA
 90
        0
  1
AcDb_Thumbnail_Schema
  2
AcDbDs::ID
280
    10
 91
        8
  2
Thumbnail_Data
280
    15
 91
        0
101
ACDSRECORD
 95
        0
 90
        1
  2
AcDbDs::TreatedAsObjectData
280
     1
291
     1
101
ACDSRECORD
 95
        0
 90
        2
  2
AcDbDs::Legacy
280
     1
291
     1
101
ACDSRECORD
  1
AcDbDs::ID
 90
        3
  2
AcDs:Indexable
280
     1
291
     1
101
ACDSRECORD
  1
AcDbDs::ID
 90
        4
  2
AcDbDs::HandleAttribute
280
     7
282
     1
  0
ACDSSCHEMA
 90
        1
  1
AcDbDs::TreatedAsObjectDataSchema
  2
AcDbDs::TreatedAsObjectData
280
     1
 91
        0
  0
ACDSSCHEMA
 90
        2
  1
AcDbDs::LegacySchema
  2
AcDbDs::Legacy
280
     1
 91
        0
  0
ACDSSCHEMA
 90
        3
  1
AcDbDs::IndexedPropertySchema
  2
AcDs:Indexable
280
     1
 91
        0
  0
ACDSSCHEMA
 90
        4
  1
AcDbDs::HandleAttributeSchema
  2
AcDbDs::HandleAttribute
280
     7
 91
        1
284
     1
  0
ACDSRECORD
 90
        0
  2
AcDbDs::ID
280
    10
320
22
  2
Thumbnail_Data
280
    15
 94
     1564
310
89504E470D0A1A0A0000000D49484452000001000000007C0803000000B13B9E5A00000300504C5445212830FFFFFF2128300000000000000000000000000000000000000000000000000000330000660000990000CC0000FF0033000033330033660033990033CC0033FF0066000066330066660066990066CC0066FF0099
310
000099330099660099990099CC0099FF00CC0000CC3300CC6600CC9900CCCC00CCFF00FF0000FF3300FF6600FF9900FFCC00FFFF3300003300333300663300993300CC3300FF3333003333333333663333993333CC3333FF3366003366333366663366993366CC3366FF3399003399333399663399993399CC3399FF33CC00
310
33CC3333CC6633CC9933CCCC33CCFF33FF0033FF3333FF6633FF9933FFCC33FFFF6600006600336600666600996600CC6600FF6633006633336633666633996633CC6633FF6666006666336666666666996666CC6666FF6699006699336699666699996699CC6699FF66CC0066CC3366CC6666CC9966CCCC66CCFF66FF0066
310
FF3366FF6666FF9966FFCC66FFFF9900009900339900669900999900CC9900FF9933009933339933669933999933CC9933FF9966009966339966669966999966CC9966FF9999009999339999669999999999CC9999FF99CC0099CC3399CC6699CC9999CCCC99CCFF99FF0099FF3399FF6699FF9999FFCC99FFFFCC0000CC00
310
33CC0066CC0099CC00CCCC00FFCC3300CC3333CC3366CC3399CC33CCCC33FFCC6600CC6633CC6666CC6699CC66CCCC66FFCC9900CC9933CC9966CC9999CC99CCCC99FFCCCC00CCCC33CCCC66CCCC99CCCCCCCCCCFFCCFF00CCFF33CCFF66CCFF99CCFFCCCCFFFFFF0000FF0033FF0066FF0099FF00CCFF00FFFF3300FF3333
310
FF3366FF3399FF33CCFF33FFFF6600FF6633FF6666FF6699FF66CCFF66FFFF9900FF9933FF9966FF9999FF99CCFF99FFFFCC00FFCC33FFCC66FFCC99FFCCCCFFCCFFFFFF00FFFF33FFFF66FFFF99FFFFCCFFFFFF0000000D0D0D1A1A1A2828283535354343435050505D5D5D6B6B6B787878868686939393A1A1A1AEAEAEBB
310
BBBBC9C9C9D6D6D6E4E4E4F1F1F1FFFFFF0000000000000000000000000000000000000000000000000000000000002E4550F10000025C4944415478DAED9D6D6F83300C84FDFFFFEF7D9F3A15880375920AB4D97754AAA64A20F2E4FC9AC0CC1E38F0D061590E9CFEB8F7B202900100A66D41000A029013CC74D9FF7EA7C7
310
F40B804C400004400004400004A00480FAC5D042B9406F02D880D0FA00BC3E47AE0B5A005B13812F0AE00DC042A750390C629F77980008000D80B6D7B1030021009403B0D8CB4533EC1A26B04CA01A80F18D7B42EC00502E0A74F2C7F884B200DA25424E1FF03B205858E58471E3F82D2980B6DAFF3CB9A3B09116005CBEF3
310
7110C3789919809F5A7C0520AD09A08FF8CDF699954D0159016CE3B726DB5923602500D8FBD30058DC18524101CE0856B7C62405D0086087C00800EEFBE418A73C417205F400CC9BC560ECC8EF0340EA03BC0498A300CE79C0BC0954CD046D657728E86A0114A905D6AA41C46DB5C4FD00DB5B43F3FD0014698834F28D3A42
310
1BA8A32576AE90F3AE0C61A2DF71D4BDED1A51641589008C6E1EA05C1CF5C1917271F4C204B43FA0A402C64BA43201B73204760076BD46420440514000187DC05E0D702AE0A879290134ED136A0071CA54DF0406A70B40F928E056C47901503BC1BFB8AC0008800008800008800008C0CD77FAC07BB412BE4CED32E99D9CE1
310
FEB10129209D0296DF06078B9F9890024AF8806FBDBC14905B019002A4001B3E525B4C016EABC3B6E7DB45B9F30CC70DC17A0AA037817E47747D05D03B419FE8F6796F6905D087C1AB11540F831700A230A844A8B6021405F814A06288BD2132F59ED4EEB4A08D28055000881D00310013002E00BC3E408950A14428CF6505
310
400004400004400004400004400004E0B63B4DF45F677F0051C3310BF51CDCC50000000049454E44AE4260820000000049454E44AE426082A641095002D301E8DEE9123B59EC6594002530218027FE6D0082D5514A208304505202FA81614D40623AA20452496060D7D1B52460F71232CDB07037A294E39BA412FA00914300
310
94C0FAE9700780EBEA534BE0180067815925F007B0E70431CCC462AC0000000049454E44AE426082
  0
ENDSEC
  0
EOF
